<?xml version="1.0" standalone="no"?>
<!DOCTYPE svg PUBLIC "-//W3C//DTD SVG 1.1//EN" "http://www.w3.org/Graphics/SVG/1.1/DTD/svg11.dtd" >
<svg xmlns="http://www.w3.org/2000/svg">
<metadata>Generated by IcoMoon</metadata>
<defs>
<font id="icomoon" horiz-adv-x="1024">
<font-face units-per-em="1024" ascent="960" descent="-64" />
<missing-glyph horiz-adv-x="1024" />
<glyph unicode="&#x20;" horiz-adv-x="512" d="" />
<glyph unicode="&#xe153;" glyph-name="flag" d="M85.333 838.4v-804.267c0-12.8 8.533-21.333 21.333-21.333h42.667c12.8 0 21.333 8.533 21.333 21.333v311.467c279.467 78.933 445.867-174.933 742.4-44.8 14.933 6.4 25.6 21.333 25.6 40.533v460.8c0 29.867-29.867 49.067-57.6 40.533-296.533-104.533-465.067 170.667-770.133 36.267-14.933-6.4-25.6-23.467-25.6-40.533z" />
<glyph unicode="&#xe7fd;" glyph-name="person" d="M512 354.133c260.267 0 448-78.933 448-213.333v-85.333c0-23.467-19.2-42.667-42.667-42.667h-810.667c-23.467 0-42.667 19.2-42.667 42.667v85.333c0 134.4 187.733 213.333 448 213.333zM768 652.8c0-141.385-114.615-256-256-256s-256 114.615-256 256c0 141.385 114.615 256 256 256s256-114.615 256-256z" />
<glyph unicode="&#xe8b8;" glyph-name="settings" d="M942.933 341.333l-72.533 68.267c2.133 17.067 4.267 34.133 4.267 51.2s-2.133 34.133-4.267 51.2l72.533 68.267c17.067 12.8 21.333 36.267 10.667 55.467l-70.4 119.467c-10.667 19.2-34.133 25.6-53.333 19.2l-93.867-27.733c-27.733 21.333-57.6 38.4-89.6 51.2l-23.467 96c-2.133 21.333-21.333 36.267-42.667 36.267h-138.667c-21.333 0-38.4-14.933-42.667-36.267l-23.467-96c-32-12.8-64-29.867-89.6-51.2l-91.733 27.733c-19.2 8.533-42.667 0-53.333-19.2l-70.4-119.467c-10.667-19.2-6.4-42.667 10.667-55.467l72.533-68.267c-2.133-17.067-4.267-34.133-4.267-51.2s2.133-34.133 4.267-51.2l-72.533-68.267c-17.067-12.8-21.333-36.267-10.667-55.467l70.4-119.467c10.667-19.2 34.133-25.6 53.333-19.2l93.867 27.733c27.733-21.333 57.6-38.4 89.6-51.2l23.467-96c2.133-21.333 21.333-36.267 42.667-36.267h138.667c21.333 0 38.4 14.933 42.667 36.267l23.467 96c32 12.8 64 29.867 89.6 51.2l93.867-27.733c19.2-8.533 42.667 0 53.333 19.2l70.4 119.467c8.533 19.2 4.267 42.667-12.8 55.467zM512 290.133c-93.867 0-170.667 76.8-170.667 170.667s76.8 170.667 170.667 170.667 170.667-76.8 170.667-170.667-76.8-170.667-170.667-170.667z" />
<glyph unicode="&#xe8db;" glyph-name="thumb_down" d="M85.333 332.8h85.333c23.467 0 42.667 19.2 42.667 42.667v426.667c0 23.467-19.2 42.667-42.667 42.667h-85.333c-23.467 0-42.667-19.2-42.667-42.667v-426.667c0-23.467 19.2-42.667 42.667-42.667zM874.667 247.467h-298.667l14.933-151.467c4.267-38.4-12.8-74.667-42.667-98.133v0c-19.2-14.933-46.933-10.667-61.867 10.667l-160 238.933c-19.2 27.733-27.733 61.867-27.733 93.867v418.133c0 46.933 38.4 85.333 85.333 85.333h443.733c40.533 0 74.667-27.733 83.2-66.133l64-290.133c4.267-19.2 6.4-36.267 6.4-55.467v-78.933c0-59.733-46.933-106.667-106.667-106.667z" />
<glyph unicode="&#xe8dc;" glyph-name="thumb_up" d="M85.333 588.8h85.333c23.467 0 42.667-19.2 42.667-42.667v-426.667c0-23.467-19.2-42.667-42.667-42.667h-85.333c-23.467 0-42.667 19.2-42.667 42.667v426.667c0 23.467 19.2 42.667 42.667 42.667zM874.667 674.133h-298.667l14.933 151.467c4.267 38.4-12.8 74.667-42.667 98.133v0c-19.2 14.933-46.933 10.667-61.867-10.667l-160-238.933c-19.2-27.733-27.733-61.867-27.733-93.867v-418.133c0-46.933 38.4-85.333 85.333-85.333h443.733c40.533 0 74.667 27.733 83.2 66.133l64 290.133c4.267 19.2 6.4 36.267 6.4 55.467v78.933c0 59.733-46.933 106.667-106.667 106.667z" />
<glyph unicode="&#xe900;" glyph-name="codepen" d="M974.933 642.133l-437.333 292.267c-14.933 8.533-29.867 8.533-44.8 0l-441.6-292.267c-10.667-6.4-17.067-21.333-17.067-34.133v-292.267c0-12.8 6.4-25.6 17.067-34.133l439.467-292.267c14.933-8.533 29.867-8.533 44.8 0l439.467 292.267c10.667 6.4 17.067 21.333 17.067 34.133v292.267c0 12.8-6.4 25.6-17.067 34.133v0zM554.667 823.467l322.133-215.467-145.067-96-177.067 119.467c0 0 0 192 0 192zM471.467 823.467v-192l-179.2-119.467-142.933 96 322.133 215.467zM115.2 531.2l102.4-70.4-102.4-70.4v140.8zM471.467 98.133l-322.133 215.467 142.933 96 179.2-119.467c0 0 0-192 0-192zM512 362.667l-145.067 98.133 147.2 98.133 147.2-98.133-149.333-98.133zM554.667 98.133v192l179.2 119.467 145.067-96-324.267-215.467zM910.933 390.4l-104.533 70.4 102.4 70.4v-140.8h2.133z" />
<glyph unicode="&#xe901;" glyph-name="facebook" d="M736 401.067l25.6 172.8h-166.4v113.067c0 46.933 23.467 93.867 98.133 93.867h76.8v147.2c0 0-68.267 12.8-134.4 12.8-136.533 0-226.133-83.2-226.133-234.667v-132.267h-153.6v-172.8h153.6v-420.267h187.733v420.267h138.667z" />
<glyph unicode="&#xe902;" glyph-name="feedly" d="M322.133 55.467l-277.333 279.467c-32 32-32 106.667 0 138.667l398.933 396.8c32 32 102.4 32 134.4 0l398.933-398.933c32-32 32-106.667 0-138.667l-279.467-277.333c-17.067-17.067-42.667-27.733-70.4-27.733h-238.933c-23.467-2.133-49.067 8.533-66.133 27.733v0zM576 164.267c6.4 6.4 6.4 17.067 0 21.333l-55.467 55.467c-6.4 6.4-17.067 6.4-21.333 0l-55.467-55.467c-6.4-6.4-6.4-17.067 0-21.333l42.667-40.533h42.667l46.933 40.533zM576 392.533c4.267 4.267 4.267 12.8 0 17.067l-59.733 57.6c-4.267 4.267-12.8 4.267-17.067 0l-168.533-168.533c-6.4-6.4-6.4-19.2 0-23.467l38.4-38.4h44.8l162.133 155.733zM576 622.933c4.267 4.267 6.4 14.933 0 19.2l-57.6 57.6c-4.267 4.267-14.933 4.267-19.2 0l-283.733-285.867c-4.267-4.267-6.4-14.933-2.133-17.067l44.8-42.667h42.667l275.2 268.8z" />
<glyph unicode="&#xe903;" glyph-name="github" d="M505.6 940.8c-275.2 0-484.267-209.067-484.267-484.267 0-217.6 138.667-407.467 334.933-473.6 23.467-4.267 34.133 10.667 34.133 23.467s0 81.067 0 119.467c0 0-138.667-29.867-166.4 57.6 0 0-21.333 57.6-55.467 70.4 0 0-44.8 32 2.133 32 0 0 49.067-4.267 76.8-51.2 42.667-76.8 115.2-53.333 145.067-42.667 4.267 32 17.067 53.333 32 66.133-110.933 10.667-224 29.867-224 217.6 0 53.333 14.933 83.2 46.933 115.2-4.267 12.8-21.333 66.133 4.267 134.4 42.667 12.8 136.533-53.333 136.533-53.333 40.533 10.667 83.2 17.067 125.867 17.067s85.333-6.4 125.867-17.067c0 0 96 66.133 136.533 53.333 27.733-68.267 10.667-119.467 4.267-134.4 32-36.267 51.2-61.867 51.2-115.2 0-192-115.2-204.8-228.267-217.6 17.067-14.933 34.133-44.8 34.133-91.733 0-66.133 0-149.333 0-164.267 0-12.8 8.533-29.867 34.133-25.6 202.667 66.133 337.067 256 337.067 475.733-6.4 279.467-230.4 488.533-503.467 488.533z" />
<glyph unicode="&#xe904;" glyph-name="caret-down" d="M204.8 558.933l283.733-283.733c12.8-12.8 32-12.8 44.8 0l283.733 283.733c19.2 19.2 6.4 55.467-23.467 55.467h-565.333c-29.867 0-44.8-34.133-23.467-55.467z" />
<glyph unicode="&#xe905;" glyph-name="hatebu" d="M977.067 170.667c0-56.554-45.846-102.4-102.4-102.4s-102.4 45.846-102.4 102.4c0 56.554 45.846 102.4 102.4 102.4s102.4-45.846 102.4-102.4zM780.8 853.333h189.867v-520.533h-189.867c-2.133 0-2.133 520.533 0 520.533zM492.8 505.6c0 0 132.267 8.533 132.267 166.4 0 183.467-164.267 183.467-258.133 183.467-61.867 0-322.133 0-322.133 0v-787.2c0 0 266.667 0 320 0 260.267 0 305.067 142.933 305.067 232.533s-46.933 177.067-177.067 204.8v0zM243.2 706.133c72.533 0 68.267 0 87.467 0 17.067 0 87.467-6.4 87.467-74.667 0-81.067-61.867-78.933-104.533-78.933s-21.333 0-72.533 0l2.133 153.6zM347.733 234.667c-49.067 0-68.267 0-104.533 0v172.8c0 0 44.8 0 106.667 0s106.667-12.8 106.667-85.333-61.867-87.467-108.8-87.467z" />
<glyph unicode="&#xe906;" glyph-name="instagram" d="M512 712.533c-138.667 0-251.733-110.933-251.733-251.733s110.933-251.733 251.733-251.733 251.733 110.933 251.733 251.733-113.067 251.733-251.733 251.733zM512 298.667c-89.6 0-162.133 72.533-162.133 162.133s72.533 162.133 162.133 162.133 162.133-72.533 162.133-162.133-72.533-162.133-162.133-162.133v0zM832 721.067c0-34.133-27.733-57.6-57.6-57.6-34.133 0-57.6 27.733-57.6 57.6s27.733 57.6 57.6 57.6 57.6-23.467 57.6-57.6zM998.4 663.467c-4.267 78.933-21.333 147.2-81.067 204.8s-128 74.667-204.8 81.067c-81.067 2.133-320 2.133-403.2-2.133-78.933-4.267-147.2-21.333-204.8-78.933s-74.667-125.867-81.067-204.8c-4.267-81.067-4.267-322.133 0-403.2 4.267-78.933 21.333-147.2 81.067-204.8s125.867-74.667 204.8-81.067c81.067-4.267 322.133-4.267 403.2 0 78.933 4.267 147.2 21.333 204.8 81.067 57.6 57.6 74.667 125.867 81.067 204.8 6.4 81.067 6.4 320 0 403.2v0zM896 170.667c-17.067-42.667-49.067-74.667-93.867-93.867-64-23.467-217.6-19.2-290.133-19.2s-224-6.4-290.133 19.2c-42.667 17.067-74.667 49.067-93.867 93.867-23.467 64-17.067 217.6-17.067 290.133s-6.4 224 21.333 290.133c14.933 42.667 49.067 74.667 91.733 91.733 64 27.733 217.6 19.2 290.133 19.2s224 6.4 290.133-19.2c42.667-17.067 74.667-49.067 93.867-93.867 23.467-64 19.2-217.6 19.2-290.133s2.133-221.867-21.333-288z" />
<glyph unicode="&#xe907;" glyph-name="line" d="M430.933 136.533c57.6-12.8 51.2-34.133 38.4-110.933-2.133-12.8-8.533-49.067 42.667-27.733 53.333 21.333 283.733 166.4 386.133 285.867 70.4 78.933 104.533 157.867 104.533 245.333 0 221.867-221.867 401.067-490.667 401.067s-490.667-179.2-490.667-401.067c0-196.267 174.933-360.533 409.6-392.533zM693.333 627.2c0 4.267 4.267 8.533 8.533 8.533h138.667c4.267 0 8.533-4.267 8.533-8.533v-34.133c0-4.267-4.267-8.533-8.533-8.533h-93.867v-36.267h93.867c4.267 0 8.533-4.267 8.533-8.533v-36.267c0-4.267-4.267-8.533-8.533-8.533h-93.867v-34.133h93.867c4.267 0 8.533-4.267 8.533-8.533v-34.133c0-4.267-4.267-8.533-8.533-8.533h-138.667c-4.267 0-8.533 4.267-8.533 8.533v209.067zM456.533 625.067c0 4.267 4.267 8.533 8.533 8.533h34.133c2.133 0 6.4-2.133 8.533-4.267l98.133-132.267v128c0 4.267 4.267 8.533 8.533 8.533h34.133c4.267 0 8.533-4.267 8.533-8.533v-213.333c0-4.267-4.267-8.533-8.533-8.533h-34.133c-2.133 0-6.4 2.133-8.533 4.267l-98.133 132.267v-128c0-4.267-4.267-8.533-8.533-8.533h-34.133c-4.267 0-8.533 4.267-8.533 8.533v213.333zM366.933 627.2c0 4.267 4.267 8.533 8.533 8.533h34.133c4.267 0 8.533-4.267 8.533-8.533v-213.333c0-4.267-4.267-8.533-8.533-8.533h-32c-4.267 0-8.533 4.267-8.533 8.533v213.333h-2.133zM181.333 627.2c0 4.267 4.267 8.533 8.533 8.533h34.133c4.267 0 8.533-4.267 8.533-8.533v-168.533h93.867c4.267 0 8.533-4.267 8.533-8.533v-34.133c0-4.267-4.267-8.533-8.533-8.533h-136.533c-2.133 0-4.267 2.133-6.4 2.133-2.133 2.133-2.133 4.267-2.133 6.4v211.2z" />
<glyph unicode="&#xe908;" glyph-name="medium" d="M298.667 740.267c-151.467 0-277.333-125.867-277.333-279.467s125.867-279.467 277.333-279.467 277.333 125.867 277.333 279.467-123.733 279.467-277.333 279.467zM740.267 723.2c-76.8 0-138.667-117.333-138.667-262.4s61.867-262.4 138.667-262.4c76.8 0 138.667 117.333 138.667 262.4v0c-2.133 145.067-61.867 262.4-138.667 262.4v0zM953.6 695.467c-27.733 0-49.067-104.533-49.067-234.667s21.333-234.667 49.067-234.667c27.733 0 49.067 104.533 49.067 234.667s-21.333 234.667-49.067 234.667v0z" />
<glyph unicode="&#xe909;" glyph-name="pinterest" d="M1002.667 460.8c0-273.067-217.6-490.667-490.667-490.667-51.2 0-100.267 6.4-145.067 21.333 19.2 34.133 49.067 87.467 59.733 130.133 6.4 21.333 32 115.2 32 115.2 14.933-32 61.867-55.467 110.933-55.467 147.2 0 253.867 136.533 253.867 305.067 0 162.133-132.267 283.733-302.933 283.733-211.2 0-324.267-142.933-324.267-296.533 0-70.4 38.4-160 100.267-189.867 8.533-4.267 12.8-2.133 14.933 6.4 2.133 6.4 8.533 40.533 12.8 55.467 2.133 4.267 0 8.533-4.267 12.8-19.2 25.6-36.267 68.267-36.267 110.933 0 108.8 83.2 211.2 221.867 211.2 119.467 0 204.8-83.2 204.8-200.533 0-134.4-66.133-226.133-153.6-226.133-49.067 0-85.333 40.533-72.533 89.6 12.8 57.6 40.533 119.467 40.533 162.133 0 38.4-19.2 68.267-61.867 68.267-49.067 0-89.6-51.2-89.6-117.333 0-44.8 14.933-72.533 14.933-72.533s-49.067-204.8-57.6-243.2c-8.533-42.667-6.4-102.4-2.133-140.8-177.067 74.667-307.2 253.867-307.2 460.8 0 273.067 217.6 490.667 490.667 490.667s490.667-217.6 490.667-490.667z" />
<glyph unicode="&#xe90a;" glyph-name="pocket" d="M896 878.933h-768c-46.933 0-85.333-38.4-85.333-85.333v-283.733c0-260.267 209.067-469.333 469.333-469.333s469.333 209.067 469.333 469.333v285.867c0 46.933-36.267 83.2-85.333 83.2zM556.8 317.867c-25.6-25.6-66.133-23.467-89.6 0-236.8 228.267-238.933 219.733-238.933 258.133 0 36.267 29.867 64 64 64 36.267 0 34.133-8.533 219.733-187.733 189.867 181.333 185.6 187.733 221.867 187.733s64-29.867 64-64c0-38.4-6.4-34.133-241.067-258.133v0z" />
<glyph unicode="&#xe90b;" glyph-name="rss" d="M320 140.8c0-70.692-57.308-128-128-128s-128 57.308-128 128c0 70.692 57.308 128 128 128s128-57.308 128-128zM693.333 12.8h-149.333c0 264.533-215.467 480-480 480v149.333c347.733 0 629.333-281.6 629.333-629.333zM992 12.8h-149.333c0 428.8-349.867 778.667-778.667 778.667v149.333c512 0 928-416 928-928z" />
<glyph unicode="&#xe90c;" glyph-name="tumblr" d="M787.2 49.067c-25.6-27.733-91.733-57.6-179.2-57.6-221.867 0-268.8 162.133-268.8 258.133v262.4h-87.467c-10.667 0-19.2 8.533-19.2 19.2v125.867c0 12.8 8.533 25.6 21.333 29.867 113.067 40.533 149.333 140.8 153.6 215.467 2.133 21.333 12.8 29.867 29.867 29.867h130.133c10.667 0 19.2-8.533 19.2-19.2v-211.2h151.467c10.667 0 19.2-8.533 19.2-19.2v-149.333c0-10.667-8.533-19.2-19.2-19.2h-151.467v-245.333c0-61.867 44.8-98.133 125.867-64 8.533 4.267 17.067 6.4 23.467 4.267s10.667-6.4 14.933-14.933l40.533-119.467c0-8.533 2.133-19.2-4.267-25.6v0z" />
<glyph unicode="&#xe90d;" glyph-name="twitter" d="M885.333 652.8c0-8.533 0-17.067 0-25.6 0-253.867-194.133-548.267-548.267-548.267-108.8 0-211.2 32-294.4 85.333 14.933-2.133 29.867-2.133 46.933-2.133 89.6 0 172.8 29.867 238.933 83.2-85.333 2.133-155.733 57.6-179.2 134.4 10.667-2.133 23.467-4.267 34.133-4.267 17.067 0 34.133 2.133 51.2 6.4-87.467 17.067-153.6 96-153.6 189.867v2.133c25.6-14.933 55.467-23.467 87.467-23.467-51.2 34.133-85.333 93.867-85.333 160 0 36.267 8.533 68.267 25.6 98.133 93.867-117.333 236.8-192 396.8-200.533-2.133 14.933-4.267 29.867-4.267 44.8 0 106.667 85.333 192 192 192 55.467 0 104.533-23.467 140.8-59.733 42.667 8.533 85.333 23.467 121.6 46.933-14.933-44.8-44.8-83.2-85.333-106.667 38.4 4.267 76.8 14.933 110.933 29.867-25.6-42.667-59.733-76.8-96-102.4v0z" />
<glyph unicode="&#xe90e;" glyph-name="wordpress" d="M128 633.6l200.533-550.4c-140.8 68.267-238.933 211.2-238.933 377.6 0 59.733 14.933 117.333 38.4 172.8zM795.733 480c0 51.2-17.067 87.467-36.267 115.2-21.333 36.267-42.667 64-42.667 98.133 0 38.4 29.867 76.8 70.4 76.8 2.133 0 4.267 0 4.267 0-74.667 70.4-172.8 113.067-281.6 113.067-147.2 0-277.333-76.8-352-189.867 8.533 0 19.2 0 27.733 0 44.8 0 110.933 4.267 110.933 4.267 21.333 2.133 25.6-32 2.133-36.267 0 0-21.333-2.133-49.067-4.267l153.6-454.4 91.733 277.333-64 181.333c-21.333 2.133-44.8 4.267-44.8 4.267-21.333 2.133-19.2 36.267 2.133 36.267 0 0 68.267-4.267 110.933-4.267 44.8 0 110.933 4.267 110.933 4.267 21.333 2.133 23.467-32 2.133-36.267 0 0-21.333-2.133-49.067-4.267l151.467-452.267 42.667 140.8c23.467 55.467 38.4 96 38.4 130.133v0zM518.4 424.533l-128-366.933c38.4-10.667 78.933-17.067 117.333-17.067 49.067 0 96 8.533 140.8 23.467-2.133 2.133-2.133 4.267-2.133 6.4l-128 354.133zM883.2 663.467c2.133-12.8 2.133-27.733 2.133-42.667 0-42.667-8.533-91.733-32-151.467l-130.133-371.2c125.867 74.667 209.067 206.933 209.067 362.667 2.133 72.533-19.2 142.933-49.067 202.667v0zM1002.667 460.8c0-268.8-221.867-490.667-490.667-490.667s-490.667 221.867-490.667 490.667 219.733 490.667 490.667 490.667 490.667-219.733 490.667-490.667zM981.333 460.8c0 258.133-209.067 469.333-469.333 469.333s-469.333-211.2-469.333-469.333 209.067-469.333 469.333-469.333 469.333 211.2 469.333 469.333z" />
<glyph unicode="&#xe90f;" glyph-name="youtube" d="M983.467 697.6c-10.667 42.667-44.8 76.8-87.467 87.467-76.8 21.333-384 21.333-384 21.333s-307.2 0-384-19.2c-42.667-10.667-76.8-44.8-87.467-87.467-19.2-78.933-19.2-238.933-19.2-238.933s0-160 19.2-238.933c10.667-42.667 44.8-74.667 87.467-87.467 76.8-19.2 384-19.2 384-19.2s307.2 0 384 19.2c42.667 10.667 76.8 42.667 87.467 87.467 19.2 78.933 19.2 238.933 19.2 238.933s0 160-19.2 236.8zM411.733 313.6v292.267l256-145.067-256-147.2z" />
<glyph unicode="&#xe910;" glyph-name="chevron-down" d="M488.533 268.8l-277.333 279.467c-17.067 17.067-17.067 42.667 0 59.733v0c17.067 17.067 42.667 17.067 59.733 0l241.067-241.067 241.067 241.067c17.067 17.067 42.667 17.067 59.733 0v0c17.067-17.067 17.067-42.667 0-59.733l-277.333-279.467c-12.8-12.8-34.133-12.8-46.933 0z" />
<glyph unicode="&#xe911;" glyph-name="chevron-left" d="M320 484.267l279.467 277.333c17.067 17.067 42.667 17.067 59.733 0v0c17.067-17.067 17.067-42.667 0-59.733l-241.067-241.067 241.067-241.067c17.067-17.067 17.067-42.667 0-59.733v0c-17.067-17.067-42.667-17.067-59.733 0l-279.467 277.333c-12.8 12.8-12.8 34.133 0 46.933z" />
<glyph unicode="&#xe912;" glyph-name="chevron-up" d="M535.467 652.8l279.467-279.467c17.067-17.067 17.067-42.667 0-59.733v0c-17.067-17.067-42.667-17.067-59.733 0l-243.2 241.067-241.067-241.067c-17.067-17.067-42.667-17.067-59.733 0v0c-17.067 17.067-17.067 42.667 0 59.733l277.333 279.467c12.8 12.8 34.133 12.8 46.933 0z" />
<glyph unicode="&#xe913;" glyph-name="megaphone" d="M872.533 360.533l-356.267 507.733c-23.467 34.133-53.333 32-64 29.867-14.933-4.267-42.667-17.067-51.2-66.133-44.8-170.667-130.133-260.267-196.267-305.067l-136.533-96c-32-21.333-51.2-55.467-53.333-93.867-2.133-32 6.4-61.867 25.6-87.467 23.467-32 64-91.733 85.333-123.733 14.933-21.333 34.133-38.4 57.6-46.933 17.067-6.4 32-8.533 49.067-8.533 25.6 0 51.2 8.533 72.533 23.467l83.2 59.733 93.867-132.267c12.8-19.2 40.533-23.467 59.733-10.667l34.133 23.467c19.2 12.8 23.467 40.533 10.667 59.733l-89.6 128c68.267 34.133 166.4 59.733 298.667 46.933 51.2-8.533 72.533 12.8 81.067 25.6 6.4 6.4 19.2 32-4.267 66.133zM448 288l-145.067 206.933c61.867 57.6 130.133 145.067 170.667 283.733l298.667-426.667c-142.933 8.533-249.6-23.467-324.267-64zM910.933 712.533l-87.467-59.733c-14.933-10.667-34.133-6.4-44.8 8.533v0c-10.667 14.933-6.4 34.133 8.533 44.8l87.467 59.733c14.933 10.667 34.133 6.4 44.8-8.533v0c10.667-12.8 6.4-34.133-8.533-44.8zM723.2 893.867l-44.8-96c-8.533-17.067-25.6-23.467-42.667-14.933v0c-17.067 8.533-23.467 25.6-14.933 42.667l44.8 96c8.533 17.067 25.6 23.467 42.667 14.933v0c17.067-8.533 23.467-27.733 14.933-42.667zM985.6 465.067l-106.667-8.533c-17.067-2.133-34.133 10.667-34.133 29.867v0c-2.133 17.067 10.667 34.133 29.867 34.133l106.667 8.533c17.067 2.133 34.133-10.667 34.133-29.867v0c0-17.067-12.8-34.133-29.867-34.133z" />
<glyph unicode="&#xe914;" glyph-name="download" d="M938.667 76.8h-853.333c-23.467 0-42.667-19.2-42.667-42.667v0c0-23.467 19.2-42.667 42.667-42.667h853.333c23.467 0 42.667 19.2 42.667 42.667v0c0 23.467-19.2 42.667-42.667 42.667zM661.333 546.133v341.333c0 23.467-19.2 42.667-42.667 42.667h-213.333c-23.467 0-42.667-19.2-42.667-42.667v-341.333h-162.133c-19.2 0-27.733-23.467-14.933-36.267l309.333-328.533c8.533-10.667 23.467-10.667 32 0l309.333 328.533c12.8 12.8 4.267 36.267-14.933 36.267 2.133 0-160 0-160 0z" />
<glyph unicode="&#xe915;" glyph-name="light-bulb" d="M682.667-19.2h-341.333c-23.467 0-42.667 19.2-42.667 42.667v0c0 23.467 19.2 42.667 42.667 42.667h341.333c23.467 0 42.667-19.2 42.667-42.667v0c0-23.467-19.2-42.667-42.667-42.667zM710.4 576c-14.933 0-27.733 10.667-32 25.6-14.933 68.267-68.267 121.6-136.533 134.4-17.067 2.133-29.867 19.2-25.6 36.267s19.2 29.867 36.267 25.6c93.867-17.067 170.667-89.6 189.867-183.467 4.267-17.067-8.533-34.133-25.6-38.4-2.133 0-4.267 0-6.4 0zM640 108.8h-256c-46.933 0-85.333 38.4-85.333 85.333v34.133c0 12.8-6.4 23.467-17.067 32-102.4 76.8-160 200.533-153.6 328.533 10.667 194.133 170.667 354.133 364.8 362.667v0c125.867 4.267 243.2-46.933 322.133-149.333 38.4-49.067 64-108.8 74.667-168.533 23.467-145.067-32-283.733-147.2-371.2-12.8-8.533-19.2-21.333-19.2-36.267v-32c2.133-46.933-36.267-85.333-83.2-85.333zM497.067 866.133c-151.467-6.4-275.2-132.267-283.733-281.6-4.267-100.267 38.4-194.133 119.467-253.867 32-23.467 51.2-61.867 51.2-100.267v-12.8c0-12.8 8.533-21.333 21.333-21.333h213.333c12.8 0 21.333 8.533 21.333 21.333v8.533c0 40.533 19.2 78.933 53.333 102.4 91.733 68.267 134.4 181.333 113.067 296.533-8.533 42.667-25.6 81.067-51.2 115.2-64 85.333-157.867 130.133-258.133 125.867v0z" />
<glyph unicode="&#xe916;" glyph-name="alert" d="M1002.667 164.267l-416 721.067c-14.933 27.733-42.667 42.667-74.667 42.667s-57.6-14.933-74.667-42.667l-416-721.067c-14.933-27.733-14.933-57.6 0-85.333s42.667-42.667 74.667-42.667h834.133c29.867 0 57.6 14.933 74.667 42.667 12.8 27.733 12.8 57.6-2.133 85.333zM458.667 599.467c0 29.867 23.467 53.333 53.333 53.333s53.333-23.467 53.333-53.333v-213.333c0-29.867-23.467-53.333-53.333-53.333s-53.333 23.467-53.333 53.333v213.333zM512 162.133c-36.267 0-64 27.733-64 64s27.733 64 64 64 64-27.733 64-64-27.733-64-64-64z" />
<glyph unicode="&#xe917;" glyph-name="hatena" d="M597.333 76.8c0-47.128-38.205-85.333-85.333-85.333s-85.333 38.205-85.333 85.333c0 47.128 38.205 85.333 85.333 85.333s85.333-38.205 85.333-85.333zM522.667 213.333h-21.333c-23.467 0-42.667 19.2-42.667 42.667v21.333c0 78.933 51.2 153.6 125.867 185.6 81.067 32 130.133 121.6 110.933 213.333-19.2 87.467-100.267 151.467-187.733 149.333-96-2.133-174.933-76.8-183.467-170.667-2.133-10.667-10.667-19.2-21.333-19.2-23.467 0-57.6 0-57.6 0-19.2 0-27.733 10.667-27.733 23.467 12.8 160 153.6 283.733 317.867 270.933 142.933-10.667 260.267-128 270.933-270.933 10.667-130.133-64-249.6-181.333-296.533-36.267-14.933-59.733-51.2-59.733-85.333v-21.333c0-23.467-19.2-42.667-42.667-42.667z" />
<glyph unicode="&#xe918;" glyph-name="toc" d="M166.4 460.8c0-35.346-28.654-64-64-64s-64 28.654-64 64c0 35.346 28.654 64 64 64s64-28.654 64-64zM945.067 418.133h-640c-23.467 0-42.667 19.2-42.667 42.667v0c0 23.467 19.2 42.667 42.667 42.667h640c23.467 0 42.667-19.2 42.667-42.667v0c-2.133-23.467-19.2-42.667-42.667-42.667zM155.733 183.467c0-29.455-23.878-53.333-53.333-53.333s-53.333 23.878-53.333 53.333c0 29.455 23.878 53.333 53.333 53.333s53.333-23.878 53.333-53.333zM166.4 183.467c0-35.346-28.654-64-64-64s-64 28.654-64 64c0 35.346 28.654 64 64 64s64-28.654 64-64zM945.067 140.8h-640c-23.467 0-42.667 19.2-42.667 42.667v0c0 23.467 19.2 42.667 42.667 42.667h640c23.467 0 42.667-19.2 42.667-42.667v0c-2.133-23.467-19.2-42.667-42.667-42.667zM166.4 738.133c0-35.346-28.654-64-64-64s-64 28.654-64 64c0 35.346 28.654 64 64 64s64-28.654 64-64zM945.067 695.467h-640c-23.467 0-42.667 19.2-42.667 42.667v0c0 23.467 19.2 42.667 42.667 42.667h640c23.467 0 42.667-19.2 42.667-42.667v0c-2.133-23.467-19.2-42.667-42.667-42.667z" />
<glyph unicode="&#xe919;" glyph-name="minus" d="M170.667 460.8v0c0 23.467 19.2 42.667 42.667 42.667h597.333c23.467 0 42.667-19.2 42.667-42.667v0c0-23.467-19.2-42.667-42.667-42.667h-597.333c-23.467 0-42.667 19.2-42.667 42.667z" />
<glyph unicode="&#xe91a;" glyph-name="book" d="M249.6 942.933l-104.533-76.8c-10.667-8.533-17.067-21.333-17.067-34.133v-612.267c0-17.067 10.667-32 25.6-38.4l512-219.733c27.733-12.8 59.733 8.533 59.733 38.4v567.467c0 17.067-10.667 32-25.6 38.4l-482.133 206.933 61.867 46.933c19.2 12.8 42.667 17.067 64 8.533l439.467-187.733c14.933-6.4 25.6-21.333 25.6-38.4v-584.533c0-19.2 21.333-27.733 36.267-17.067l36.267 32c8.533 8.533 14.933 19.2 14.933 32v590.933c0 17.067-10.667 32-25.6 38.4l-514.133 221.867c-36.267 14.933-76.8 10.667-106.667-12.8z" />
<glyph unicode="&#xe91b;" glyph-name="menu-thin" d="M949.333 428.8h-874.667c-17.067 0-32 14.933-32 32v0c0 17.067 14.933 32 32 32h874.667c17.067 0 32-14.933 32-32v0c0-17.067-14.933-32-32-32zM949.333 706.133h-874.667c-17.067 0-32 14.933-32 32v0c0 17.067 14.933 32 32 32h874.667c17.067 0 32-14.933 32-32v0c0-17.067-14.933-32-32-32zM949.333 151.467h-874.667c-17.067 0-32 14.933-32 32v0c0 17.067 14.933 32 32 32h874.667c17.067 0 32-14.933 32-32v0c0-17.067-14.933-32-32-32z" />
<glyph unicode="&#xe91c;" glyph-name="plus" d="M512 119.467v0c-23.467 0-42.667 19.2-42.667 42.667v597.333c0 23.467 19.2 42.667 42.667 42.667v0c23.467 0 42.667-19.2 42.667-42.667v-597.333c0-23.467-19.2-42.667-42.667-42.667zM170.667 460.8v0c0 23.467 19.2 42.667 42.667 42.667h597.333c23.467 0 42.667-19.2 42.667-42.667v0c0-23.467-19.2-42.667-42.667-42.667h-597.333c-23.467 0-42.667 19.2-42.667 42.667z" />
<glyph unicode="&#xe91d;" glyph-name="info" d="M512-29.867c-270.933 0-490.667 219.733-490.667 490.667s219.733 490.667 490.667 490.667 490.667-219.733 490.667-490.667-219.733-490.667-490.667-490.667zM512 866.133c-224 0-405.333-181.333-405.333-405.333s181.333-405.333 405.333-405.333 405.333 181.333 405.333 405.333-181.333 405.333-405.333 405.333zM586.667 635.733c0-41.237-33.429-74.667-74.667-74.667s-74.667 33.429-74.667 74.667c0 41.237 33.429 74.667 74.667 74.667s74.667-33.429 74.667-74.667zM597.333 294.4h-32v192c0 12.8-8.533 21.333-21.333 21.333h-106.667c-17.067 0-27.733-19.2-17.067-34.133l38.4-51.2v-128h-32c-12.8 0-21.333-8.533-21.333-21.333v-42.667c0-12.8 8.533-21.333 21.333-21.333h170.667c12.8 0 21.333 8.533 21.333 21.333v42.667c0 12.8-8.533 21.333-21.333 21.333z" />
<glyph unicode="&#xe91e;" glyph-name="amazon" d="M584.533 652.8c-104.533-4.267-366.933-34.133-366.933-253.867 0-236.8 298.667-247.467 396.8-93.867 14.933-21.333 76.8-81.067 98.133-100.267l123.733 121.6c0 0-70.4 55.467-70.4 115.2v315.733c0 55.467-53.333 177.067-243.2 177.067s-292.267-119.467-292.267-226.133l160-14.933c36.267 106.667 117.333 106.667 117.333 106.667 87.467 2.133 76.8-64 76.8-147.2v0zM584.533 465.067c0-172.8-181.333-147.2-181.333-36.267 0 102.4 108.8 121.6 181.333 125.867v-89.6zM878.933 110.933c-17.067-21.333-151.467-145.067-377.6-145.067s-398.933 153.6-452.267 217.6c-14.933 17.067 2.133 23.467 12.8 17.067 157.867-96 405.333-253.867 806.4-66.133 14.933 10.667 25.6-2.133 10.667-23.467zM964.267 106.667c-14.933-34.133-34.133-57.6-44.8-66.133-12.8-10.667-21.333-6.4-14.933 8.533s42.667 100.267 27.733 119.467c-14.933 17.067-81.067 8.533-104.533 6.4s-27.733-4.267-29.867 0c-4.267 12.8 46.933 34.133 81.067 38.4s89.6 2.133 100.267-12.8c6.4-12.8 0-59.733-14.933-93.867v0z" />
<glyph unicode="&#xe91f;" glyph-name="x" d="M586.667 460.8l339.2 339.2c8.533 8.533 8.533 21.333 0 29.867l-44.8 44.8c-8.533 8.533-21.333 8.533-29.867 0l-339.2-339.2-339.2 339.2c-8.533 8.533-21.333 8.533-29.867 0l-44.8-44.8c-8.533-8.533-8.533-21.333 0-29.867l339.2-339.2-339.2-339.2c-8.533-8.533-8.533-21.333 0-29.867l44.8-44.8c8.533-8.533 21.333-8.533 29.867 0l339.2 339.2 339.2-339.2c8.533-8.533 21.333-8.533 29.867 0l44.8 44.8c8.533 8.533 8.533 21.333 0 29.867l-339.2 339.2z" />
<glyph unicode="&#xe920;" glyph-name="close-thin" d="M556.8 460.8l317.867 315.733c12.8 12.8 12.8 32 0 44.8s-32 12.8-44.8 0l-317.867-315.733-315.733 317.867c-12.8 12.8-34.133 12.8-46.933 0s-12.8-34.133 0-46.933l317.867-315.733-317.867-315.733c-12.8-12.8-12.8-32 0-44.8s32-12.8 44.8 0l317.867 315.733 315.733-317.867c12.8-12.8 32-12.8 44.8 0s12.8 32 0 44.8l-315.733 317.867z" />
<glyph unicode="&#xe921;" glyph-name="chevron-right" d="M704 437.333l-279.467-277.333c-17.067-17.067-42.667-17.067-59.733 0v0c-17.067 17.067-17.067 42.667 0 59.733l241.067 241.067-241.067 241.067c-17.067 17.067-17.067 42.667 0 59.733v0c17.067 17.067 42.667 17.067 59.733 0l279.467-277.333c12.8-12.8 12.8-34.133 0-46.933z" />
<glyph unicode="&#xe922;" glyph-name="home" d="M512 919.467l-501.333-490.667v-42.667h160v-320c0-12.8 8.533-21.333 21.333-21.333h234.667v213.333h170.667v-213.333h234.667c12.8 0 21.333 8.533 21.333 21.333v320h160v42.667l-501.333 490.667z" />
<glyph unicode="&#xe923;" glyph-name="check" d="M964.267 759.467l-44.8 44.8c-8.533 8.533-21.333 8.533-29.867 0l-544-541.867-211.2 211.2c-8.533 8.533-21.333 8.533-29.867 0l-44.8-44.8c-8.533-8.533-8.533-21.333 0-29.867l285.867-285.867 618.667 618.667c8.533 6.4 8.533 19.2 0 27.733z" />
<glyph unicode="&#xe924;" glyph-name="file-empty" d="M885.333 723.2l-174.933 174.933c-19.2 21.333-46.933 32-74.667 32h-422.4c-59.733 0-106.667-46.933-106.667-106.667v-725.333c0-59.733 46.933-106.667 106.667-106.667h597.333c59.733 0 106.667 46.933 106.667 106.667v550.4c0 27.733-10.667 53.333-32 74.667zM661.333 827.733l153.6-153.6h-132.267c-12.8 0-21.333 8.533-21.333 21.333v132.267zM810.667 76.8h-597.333c-12.8 0-21.333 8.533-21.333 21.333v725.333c0 12.8 8.533 21.333 21.333 21.333h362.667v-149.333c0-59.733 46.933-106.667 106.667-106.667h149.333v-490.667c0-12.8-8.533-21.333-21.333-21.333z" />
<glyph unicode="&#xe925;" glyph-name="share" d="M810.667 290.133c-42.667 0-81.067-19.2-108.8-46.933l-384 192c2.133 8.533 2.133 17.067 2.133 25.6s0 17.067-2.133 25.6l384 192c27.733-27.733 66.133-46.933 108.8-46.933 83.2 0 149.333 66.133 149.333 149.333s-66.133 149.333-149.333 149.333-149.333-66.133-149.333-149.333c0-8.533 0-17.067 2.133-25.6l-384-192c-27.733 27.733-66.133 46.933-108.8 46.933-83.2 0-149.333-66.133-149.333-149.333s66.133-149.333 149.333-149.333c42.667 0 81.067 19.2 108.8 46.933l384-192c-2.133-8.533-2.133-17.067-2.133-25.6 0-83.2 66.133-149.333 149.333-149.333s149.333 66.133 149.333 149.333-66.133 149.333-149.333 149.333z" />
<glyph unicode="&#xe926;" glyph-name="twitter-x" d="M599.467 533.333l341.333 396.8h-81.067l-296.533-345.6-236.8 345.6h-273.067l358.4-522.667-358.4-416h81.067l313.6 364.8 249.6-364.8h273.067l-371.2 541.867zM488.533 403.2l-36.267 51.2-290.133 413.867h123.733l232.533-332.8 36.267-51.2 302.933-433.067h-123.733l-245.333 352z" />
<glyph unicode="&#xe929;" glyph-name="quill" d="M42.667-8.533c125.867 360.533 435.2 938.667 938.667 938.667-345.6-202.667-281.6-618.667-554.667-618.667-25.6 0-51.2-2.133-76.8-4.267-64-8.533-102.4-40.533-140.8-93.867-34.133-49.067-96-157.867-123.733-221.867h-42.667z" />
<glyph unicode="&#xe92c;" glyph-name="mail" d="M537.6 445.867l443.733 324.267v10.667c0 23.467-19.2 42.667-42.667 42.667h-853.333c-23.467 0-42.667-19.2-42.667-42.667v-10.667l443.733-322.133c14.933-12.8 36.267-12.8 51.2-2.133zM486.4 341.333l-443.733 322.133v-501.333c0-36.267 27.733-64 64-64h810.667c36.267 0 64 27.733 64 64v501.333l-443.733-322.133c-14.933-10.667-36.267-10.667-51.2 0z" />
<glyph unicode="&#xe92d;" glyph-name="modified" d="M821.333 770.133c-85.333 74.667-194.133 117.333-309.333 117.333 0 0 0 0 0 0-110.933 0-213.333-38.4-298.667-108.8-19.2-14.933-19.2-44.8-2.133-61.867v0c14.933-14.933 40.533-17.067 57.6-2.133 70.4 57.6 153.6 87.467 243.2 87.467 91.733 0 179.2-34.133 247.467-93.867l-83.2-83.2c-12.8-12.8-4.267-36.267 14.933-36.267h215.467c17.067 0 32 14.933 32 32v215.467c0 19.2-23.467 27.733-36.267 14.933l-81.067-81.067zM810.667 204.8c-14.933 14.933-38.4 14.933-55.467 2.133-68.267-55.467-153.6-87.467-243.2-87.467-91.733 0-179.2 32-247.467 91.733l85.333 85.333c12.8 12.8 4.267 36.267-14.933 36.267h-217.6c-17.067 0-32-14.933-32-32v-215.467c0-19.2 23.467-27.733 36.267-14.933l81.067 81.067c85.333-74.667 194.133-115.2 309.333-115.2 110.933 0 213.333 38.4 296.533 106.667 19.2 14.933 21.333 42.667 2.133 61.867v0z" />
<glyph unicode="&#xe92e;" glyph-name="search" d="M949.333 83.2l-202.667 204.8c53.333 66.133 85.333 149.333 85.333 238.933 0 211.2-172.8 384-384 384s-384-172.8-384-384c0-211.2 172.8-384 384-384 89.6 0 172.8 32 238.933 85.333l202.667-202.667c17.067-17.067 42.667-17.067 59.733 0 17.067 14.933 17.067 40.533 0 57.6zM445.867 228.267c-164.267 0-298.667 134.4-298.667 298.667s134.4 298.667 298.667 298.667 298.667-134.4 298.667-298.667-134.4-298.667-298.667-298.667z" />
<glyph unicode="&#xe92f;" glyph-name="folder" d="M426.667 866.133l106.667-128h426.667c12.8 0 21.333-8.533 21.333-21.333v-640c0-12.8-8.533-21.333-21.333-21.333h-896c-12.8 0-21.333 8.533-21.333 21.333v768c0 12.8 8.533 21.333 21.333 21.333h362.667z" />
<glyph unicode="&#xe930;" glyph-name="more_arrow" d="M938.667 396.8h-853.333v64h782.933l-123.733 138.667 46.933 42.667 170.667-192z" />
<glyph unicode="&#xe931;" glyph-name="posted" d="M512 930.133c-258.133 0-469.333-211.2-469.333-469.333s211.2-469.333 469.333-469.333 469.333 211.2 469.333 469.333-211.2 469.333-469.333 469.333zM512 76.8c-211.2 0-384 172.8-384 384s172.8 384 384 384c211.2 0 384-172.8 384-384s-172.8-384-384-384zM682.667 482.133h-128v213.333c0 23.467-19.2 42.667-42.667 42.667s-42.667-19.2-42.667-42.667v-256c0-23.467 19.2-42.667 42.667-42.667h170.667c23.467 0 42.667 19.2 42.667 42.667s-19.2 42.667-42.667 42.667z" />
<glyph unicode="&#xe932;" glyph-name="lock-closed" d="M896 588.8h-128v85.333c0 17.067-2.133 34.133-4.267 51.2v0c-2.133 8.533-4.267 17.067-6.4 23.467 0 2.133-2.133 4.267-2.133 4.267-2.133 6.4-4.267 10.667-6.4 17.067-2.133 4.267-2.133 6.4-2.133 8.533-2.133 4.267-4.267 10.667-6.4 14.933-2.133 2.133-2.133 4.267-4.267 6.4-2.133 4.267-4.267 8.533-8.533 12.8-2.133 2.133-2.133 4.267-4.267 6.4-2.133 4.267-6.4 8.533-8.533 10.667s-4.267 4.267-6.4 6.4c-2.133 4.267-6.4 6.4-8.533 10.667-2.133 2.133-4.267 4.267-6.4 8.533-2.133 2.133-6.4 4.267-8.533 6.4-12.8 10.667-25.6 21.333-40.533 29.867-2.133 0-4.267 2.133-4.267 2.133-4.267 2.133-8.533 4.267-12.8 6.4-2.133 2.133-4.267 2.133-6.4 4.267-4.267 2.133-8.533 4.267-12.8 6.4-2.133 2.133-6.4 2.133-8.533 2.133-4.267 2.133-8.533 2.133-12.8 4.267-4.267 0-6.4 2.133-10.667 2.133s-8.533 2.133-10.667 2.133c-4.267 0-8.533 2.133-12.8 2.133-2.133 0-6.4 0-8.533 2.133-14.933 4.267-23.467 4.267-32 4.267-140.8 0-256-115.2-256-256v0-85.333h-128c-36.267 0-64-27.733-64-64v-469.333c0-36.267 27.733-64 64-64h768c36.267 0 64 27.733 64 64v469.333c0 36.267-27.733 64-64 64zM512 226.133c-36.267 0-64 27.733-64 64s27.733 64 64 64 64-27.733 64-64-27.733-64-64-64zM682.667 588.8h-341.333v78.933c0 78.933 53.333 149.333 125.867 170.667 0 0 0 0 0 0 4.267 0 6.4 2.133 10.667 2.133 2.133 0 6.4 2.133 8.533 2.133s4.267 0 8.533 0c2.133 0 6.4 0 8.533 0s6.4 0 8.533 0c2.133 0 6.4 0 8.533 0s6.4 0 8.533 0c2.133 0 6.4 0 8.533-2.133 2.133 0 4.267 0 8.533-2.133 4.267 0 6.4-2.133 10.667-2.133 2.133 0 4.267-2.133 6.4-2.133 4.267-2.133 6.4-2.133 10.667-4.267 2.133 0 4.267-2.133 4.267-2.133 4.267-2.133 6.4-2.133 10.667-4.267 2.133 0 2.133-2.133 4.267-2.133 4.267-2.133 6.4-4.267 10.667-6.4 2.133 0 2.133-2.133 4.267-2.133 2.133-2.133 6.4-4.267 8.533-6.4s4.267-2.133 4.267-4.267 4.267-4.267 6.4-6.4c2.133-2.133 4.267-4.267 6.4-6.4s4.267-4.267 6.4-6.4c2.133-2.133 4.267-6.4 6.4-8.533s2.133-2.133 4.267-4.267c2.133-4.267 4.267-6.4 6.4-10.667 0 0 2.133-2.133 2.133-2.133 2.133-4.267 4.267-8.533 6.4-12.8 0 0 0-2.133 0-2.133 2.133-4.267 4.267-8.533 6.4-14.933 0 0 0-2.133 0-2.133 2.133-4.267 2.133-8.533 4.267-12.8 0-2.133 0-2.133 0-4.267 2.133-10.667 4.267-23.467 4.267-36.267v-83.2z" />
<glyph unicode="&#xe933;" glyph-name="lock-open" d="M896 588.8h-554.667v78.933c0 81.067 53.333 153.6 130.133 170.667 96 23.467 187.733-40.533 206.933-132.267l83.2 17.067c-23.467 121.6-128 206.933-249.6 206.933-140.8 0-256-115.2-256-256v0-85.333h-128c-36.267 0-64-27.733-64-64v-469.333c0-36.267 27.733-64 64-64h768c36.267 0 64 27.733 64 64v469.333c0 36.267-27.733 64-64 64zM512 226.133c-36.267 0-64 27.733-64 64s27.733 64 64 64 64-27.733 64-64-27.733-64-64-64z" />
<glyph unicode="&#xe934;" glyph-name="pen" d="M917.333-8.533h-469.333c-23.467 0-42.667 19.2-42.667 42.667v0c0 23.467 19.2 42.667 42.667 42.667h469.333c23.467 0 42.667-19.2 42.667-42.667v0c0-23.467-19.2-42.667-42.667-42.667zM610.133 746.667l53.333 91.733c6.4 10.667 2.133 23.467-8.533 29.867l-110.933 64c-10.667 6.4-23.467 2.133-29.867-8.533l-53.333-91.733 149.333-85.333zM430.933 776.533l-360.533-625.067c-8.533-14.933-12.8-32-10.667-49.067l6.4-96c0-14.933 17.067-23.467 29.867-17.067l85.333 42.667c14.933 8.533 27.733 19.2 36.267 34.133l360.533 625.067-147.2 85.333z" />
<glyph unicode="&#xe935;" glyph-name="tag" d="M921.6 917.333h-364.8c-27.733 0-59.733-14.933-78.933-34.133l-454.4-452.267c-17.067-17.067-17.067-46.933 0-64l394.667-392.533c17.067-17.067 46.933-17.067 64 0l454.4 454.4c17.067 17.067 34.133 51.2 34.133 78.933v364.8c-2.133 23.467-23.467 44.8-49.067 44.8zM695.467 556.8c-46.933 0-87.467 40.533-87.467 87.467s40.533 87.467 87.467 87.467 87.467-40.533 87.467-87.467-42.667-87.467-87.467-87.467z" />
<glyph unicode="&#xe936;" glyph-name="swell" d="M161.28 573.44c0-29.691-24.069-53.76-53.76-53.76s-53.76 24.069-53.76 53.76c0 29.691 24.069 53.76 53.76 53.76s53.76-24.069 53.76-53.76zM939.52 675.84c-25.6 56.32-94.72 99.84-176.64 84.48-92.16-17.92-138.24-74.24-199.68-151.040-69.12-87.040-140.8-179.2-240.64-217.6-35.84-15.36-71.68-20.48-110.080-20.48-28.16 0-58.88 5.12-89.6 12.8-17.92 5.12-38.4 12.8-58.88 20.48 51.2-202.24 235.52-353.28 455.68-348.16 250.88 5.12 453.12 212.48 453.12 460.8-2.56 53.76-10.24 110.080-33.28 158.72z" />
<glyph unicode="&#xe937;" glyph-name="image" d="M810.667 631.467c0-47.128-38.205-85.333-85.333-85.333s-85.333 38.205-85.333 85.333c0 47.128 38.205 85.333 85.333 85.333s85.333-38.205 85.333-85.333zM896 866.133h-768c-46.933 0-85.333-38.4-85.333-85.333v-640c0-46.933 38.4-85.333 85.333-85.333h768c46.933 0 85.333 38.4 85.333 85.333v640c0 46.933-38.4 85.333-85.333 85.333zM782.933 448c-8.533 6.4-21.333 6.4-27.733-2.133l-157.867-155.733-217.6 258.133c-8.533 10.667-23.467 10.667-32 0l-219.733-258.133v490.667h768v-422.4l-113.067 89.6z" />
<glyph unicode="&#xe939;" glyph-name="cart" d="M885.333 66.133c0-47.128-38.205-85.333-85.333-85.333s-85.333 38.205-85.333 85.333c0 47.128 38.205 85.333 85.333 85.333s85.333-38.205 85.333-85.333zM373.333 66.133c0-47.128-38.205-85.333-85.333-85.333s-85.333 38.205-85.333 85.333c0 47.128 38.205 85.333 85.333 85.333s85.333-38.205 85.333-85.333zM928 791.467h-710.4l-14.933 113.067c-2.133 21.333-21.333 36.267-42.667 36.267h-106.667c-23.467 0-42.667-19.2-42.667-42.667v0c0-23.467 19.2-42.667 42.667-42.667h68.267l81.067-625.067c2.133-21.333 21.333-36.267 42.667-36.267h618.667c23.467 0 42.667 19.2 42.667 42.667v0c0 23.467-19.2 42.667-42.667 42.667h-580.267l-8.533 85.333h610.133c21.333 0 40.533 17.067 42.667 38.4l42.667 341.333c2.133 23.467-17.067 46.933-42.667 46.933z" />
<glyph unicode="&#xe93a;" glyph-name="film" d="M917.333 866.133h-810.667c-36.267 0-64-27.733-64-64v-682.667c0-36.267 27.733-64 64-64h810.667c36.267 0 64 27.733 64 64v682.667c0 36.267-27.733 64-64 64zM256 162.133c0-12.8-8.533-21.333-21.333-21.333h-85.333c-12.8 0-21.333 8.533-21.333 21.333v85.333c0 12.8 8.533 21.333 21.333 21.333h85.333c12.8 0 21.333-8.533 21.333-21.333v-85.333zM256 418.133c0-12.8-8.533-21.333-21.333-21.333h-85.333c-12.8 0-21.333 8.533-21.333 21.333v85.333c0 12.8 8.533 21.333 21.333 21.333h85.333c12.8 0 21.333-8.533 21.333-21.333v-85.333zM256 674.133c0-12.8-8.533-21.333-21.333-21.333h-85.333c-12.8 0-21.333 8.533-21.333 21.333v85.333c0 12.8 8.533 21.333 21.333 21.333h85.333c12.8 0 21.333-8.533 21.333-21.333v-85.333zM682.667 162.133c0-12.8-8.533-21.333-21.333-21.333h-298.667c-12.8 0-21.333 8.533-21.333 21.333v597.333c0 12.8 8.533 21.333 21.333 21.333h298.667c12.8 0 21.333-8.533 21.333-21.333v-597.333zM896 162.133c0-12.8-8.533-21.333-21.333-21.333h-85.333c-12.8 0-21.333 8.533-21.333 21.333v85.333c0 12.8 8.533 21.333 21.333 21.333h85.333c12.8 0 21.333-8.533 21.333-21.333v-85.333zM896 418.133c0-12.8-8.533-21.333-21.333-21.333h-85.333c-12.8 0-21.333 8.533-21.333 21.333v85.333c0 12.8 8.533 21.333 21.333 21.333h85.333c12.8 0 21.333-8.533 21.333-21.333v-85.333zM896 674.133c0-12.8-8.533-21.333-21.333-21.333h-85.333c-12.8 0-21.333 8.533-21.333 21.333v85.333c0 12.8 8.533 21.333 21.333 21.333h85.333c12.8 0 21.333-8.533 21.333-21.333v-85.333zM448 546.133v-170.667c0-17.067 19.2-27.733 34.133-17.067l113.067 85.333c10.667 8.533 10.667 25.6 0 34.133l-113.067 85.333c-14.933 10.667-34.133 0-34.133-17.067z" />
<glyph unicode="&#xe93b;" glyph-name="caret-right" d="M413.867 155.733l283.733 283.733c12.8 12.8 12.8 32 0 44.8l-283.733 283.733c-19.2 19.2-55.467 6.4-55.467-23.467v-565.333c0-29.867 34.133-44.8 55.467-23.467z" />
<glyph unicode="&#xe93c;" glyph-name="caret-left" d="M610.133 765.867l-283.733-283.733c-12.8-12.8-12.8-32 0-44.8l283.733-283.733c19.2-19.2 55.467-6.4 55.467 23.467v565.333c0 29.867-34.133 44.8-55.467 23.467z" />
<glyph unicode="&#xe93d;" glyph-name="room" d="M964.267 78.933l-774.4-108.8-128 108.8h902.4zM334.933 160h-145.067v770.133h243.2c147.2 0 266.667-117.333 266.667-266.667 0-89.6-44.8-170.667-110.933-217.6l217.6-288h-183.467l-181.333 238.933h-102.4v-238.933h-4.267v2.133zM334.933 546.133h96c68.267 0 117.333 55.467 117.333 117.333 0 68.267-55.467 117.333-117.333 117.333h-96c0 2.133 0-234.667 0-234.667z" />
<glyph unicode="&#xe93e;" glyph-name="tiktok" d="M921.6 546.133c-81.067 0-160 25.6-226.133 72.533v-328.533c0-164.267-134.4-298.667-298.667-298.667s-298.667 134.4-298.667 298.667c0 164.267 134.4 298.667 298.667 298.667 12.8 0 27.733 0 40.533-2.133v-164.267c-72.533 23.467-149.333-17.067-170.667-89.6s17.067-149.333 89.6-170.667c72.533-23.467 149.333 17.067 170.667 89.6 4.267 12.8 6.4 27.733 6.4 40.533v637.867h162.133c0-12.8 0-27.733 4.267-40.533v0c10.667-59.733 46.933-113.067 98.133-147.2 36.267-23.467 78.933-36.267 123.733-36.267v-160z" />
<glyph unicode="&#xe93f;" glyph-name="triangle" d="M917.333 55.467h-810.667c-25.6 0-51.2 14.933-64 36.267-12.8 23.467-12.8 51.2 0 74.667l405.333 704c12.8 23.467 38.4 38.4 64 38.4s51.2-14.933 64-38.4l405.333-704c12.8-23.467 12.8-51.2 0-74.667s-36.267-36.267-64-36.267zM162.133 162.133h701.867l-352 608-349.867-608zM539.733 817.067v0c0 0 0 0 0 0v0z" />
<glyph unicode="&#xe940;" glyph-name="alert-outline" d="M928 36.267h-832c-29.867 0-57.6 14.933-74.667 42.667-14.933 27.733-14.933 57.6 0 85.333l416 721.067c14.933 27.733 42.667 42.667 74.667 42.667s57.6-14.933 74.667-42.667l416-721.067c14.933-27.733 14.933-57.6 0-85.333s-42.667-42.667-74.667-42.667zM512 842.667l-416-721.067h834.133l-418.133 721.067zM576 226.133c0-35.346-28.654-64-64-64s-64 28.654-64 64c0 35.346 28.654 64 64 64s64-28.654 64-64zM512 332.8v0c-29.867 0-53.333 23.467-53.333 53.333v213.333c0 29.867 23.467 53.333 53.333 53.333v0c29.867 0 53.333-23.467 53.333-53.333v-213.333c0-29.867-23.467-53.333-53.333-53.333z" />
<glyph unicode="&#xe941;" glyph-name="info-fill" d="M512 951.467c-270.933 0-490.667-219.733-490.667-490.667s219.733-490.667 490.667-490.667 490.667 219.733 490.667 490.667-219.733 490.667-490.667 490.667zM512 712.533c40.533 0 74.667-34.133 74.667-74.667s-34.133-74.667-74.667-74.667-74.667 34.133-74.667 74.667 34.133 74.667 74.667 74.667zM618.667 230.4c0-12.8-8.533-21.333-21.333-21.333h-170.667c-12.8 0-21.333 8.533-21.333 21.333v42.667c0 12.8 8.533 21.333 21.333 21.333h32v128l-38.4 51.2c-10.667 14.933 0 34.133 17.067 34.133h106.667c12.8 0 21.333-8.533 21.333-21.333v-192h32c12.8 0 21.333-8.533 21.333-21.333v-42.667z" />
<glyph unicode="&#xe942;" glyph-name="phone" d="M283.733 512c66.133-113.067 160-211.2 277.333-277.333 19.2-12.8 42.667-10.667 59.733 6.4l61.867 61.867c14.933 14.933 32 14.933 51.2 12.8l174.933-27.733c25.6-4.267 49.067-21.333 49.067-49.067v-172.8c0-27.733-21.333-49.067-49.067-49.067-465.067-2.133-844.8 375.467-844.8 838.4 0 27.733 21.333 49.067 49.067 49.067h172.8c27.733 0 46.933-23.467 49.067-49.067l27.733-174.933c4.267-19.2 2.133-36.267-12.8-51.2l-61.867-40.533c-12.8-12.8-17.067-59.733-4.267-76.8z" />
<glyph unicode="&#xe943;" glyph-name="caret-up" d="M817.067 362.667l-283.733 283.733c-12.8 12.8-32 12.8-44.8 0l-283.733-283.733c-19.2-19.2-6.4-55.467 23.467-55.467h565.333c29.867 0 44.8 34.133 23.467 55.467z" />
<glyph unicode="&#xe944;" glyph-name="light-bulb-fill" d="M682.667-19.2h-341.333c-23.467 0-42.667 19.2-42.667 42.667v0c0 23.467 19.2 42.667 42.667 42.667h341.333c23.467 0 42.667-19.2 42.667-42.667v0c0-23.467-19.2-42.667-42.667-42.667zM889.6 633.6c-8.533 61.867-36.267 119.467-74.667 168.533-78.933 102.4-196.267 153.6-322.133 149.333-194.133-8.533-354.133-168.533-364.8-362.667-6.4-128 51.2-249.6 153.6-328.533 10.667-8.533 17.067-19.2 17.067-32v-34.133c0-46.933 38.4-85.333 85.333-85.333h256c46.933 0 85.333 38.4 85.333 85.333v32c0 12.8 6.4 25.6 19.2 36.267 113.067 85.333 170.667 226.133 145.067 371.2zM738.133 597.333c-2.133 0-4.267 0-6.4 0-14.933 0-27.733 10.667-32 25.6-14.933 68.267-68.267 121.6-136.533 134.4-17.067 2.133-29.867 19.2-25.6 36.267s19.2 29.867 36.267 25.6c93.867-17.067 170.667-89.6 189.867-183.467 2.133-17.067-8.533-34.133-25.6-38.4z" />
<glyph unicode="&#xe96b;" glyph-name="bubble" d="M512 896c-260.267 0-469.333-192-469.333-426.667 0-91.733 32-174.933 85.333-245.333l-42.667-172.8c-4.267-17.067 12.8-32 29.867-23.467l166.4 72.533c68.267-34.133 147.2-55.467 230.4-55.467 260.267 0 469.333 192 469.333 426.667s-209.067 424.533-469.333 424.533z" />
<glyph unicode="&#xe970;" glyph-name="bubbles" d="M405.333 923.733c-211.2 0-384-157.867-384-349.867 0-74.667 25.6-142.933 70.4-200.533l-32-134.4c-4.267-17.067 12.8-32 29.867-23.467l128 55.467c55.467-27.733 119.467-44.8 187.733-44.8 211.2 0 384 155.733 384 349.867 0 189.867-172.8 347.733-384 347.733zM932.267 160c44.8 57.6 70.4 125.867 70.4 200.533 0 192-172.8 349.867-384 349.867s-384-155.733-384-349.867c0-192 172.8-349.867 384-349.867 68.267 0 132.267 17.067 187.733 44.8l128-55.467c17.067-6.4 34.133 6.4 29.867 23.467l-32 136.533zM320 360.533c0 145.067 134.4 264.533 298.667 264.533s298.667-117.333 298.667-264.533-134.4-264.533-298.667-264.533-298.667 119.467-298.667 264.533z" />
<glyph unicode="&#xe9c5;" glyph-name="link" d="M441.6 336c-12.8 0-25.6 6.4-35.2 16-96 96-96 249.6 0 345.6l192 192c41.6 44.8 105.6 70.4 169.6 70.4s128-25.6 172.8-70.4c96-96 96-249.6 0-345.6l-86.4-86.4c-19.2-19.2-54.4-19.2-73.6 0s-19.2 54.4 0 73.6l86.4 86.4c54.4 54.4 54.4 144 0 198.4-25.6 25.6-60.8 41.6-99.2 41.6s-73.6-16-99.2-41.6l-192-192c-54.4-54.4-54.4-144 0-198.4 19.2-19.2 19.2-54.4 0-73.6-9.6-9.6-22.4-16-35.2-16zM256-38.4c-64 0-128 25.6-172.8 70.4-96 96-96 249.6 0 345.6l86.4 86.4c19.2 19.2 54.4 19.2 73.6 0s19.2-54.4 0-73.6l-86.4-86.4c-54.4-54.4-54.4-144 0-198.4 25.6-25.6 60.8-41.6 99.2-41.6s73.6 16 99.2 41.6l192 192c54.4 54.4 54.4 144 0 198.4-19.2 19.2-19.2 54.4 0 73.6s54.4 19.2 73.6 0c96-96 96-249.6 0-345.6l-192-192c-44.8-44.8-108.8-70.4-172.8-70.4z" />
<glyph unicode="&#xe9ce;" glyph-name="eye" d="M989.867 492.8c-106.667 185.6-277.333 288-477.867 288s-371.2-102.4-477.867-288c-10.667-19.2-10.667-44.8 0-64 106.667-185.6 277.333-288 477.867-288s371.2 102.4 477.867 288c10.667 19.2 10.667 44.8 0 64zM448 684.8c53.333 0 96-42.667 96-96s-42.667-96-96-96-96 42.667-96 96 42.667 96 96 96zM512 226.133c-166.4 0-307.2 83.2-396.8 234.667 44.8 72.533 100.267 130.133 164.267 170.667-14.933-32-23.467-68.267-23.467-106.667 0-140.8 115.2-256 256-256s256 115.2 256 256c0 38.4-8.533 74.667-23.467 106.667 64-40.533 121.6-96 164.267-170.667-89.6-151.467-230.4-234.667-396.8-234.667z" />
<glyph unicode="&#xe9d3;" glyph-name="bookmark" d="M213.333 908.8h597.333c23.467 0 42.667-19.2 42.667-42.667v-844.8c0-19.2-23.467-27.733-36.267-14.933l-305.067 305.067-305.067-305.067c-12.8-12.8-36.267-4.267-36.267 14.933v844.8c0 23.467 19.2 42.667 42.667 42.667z" />
<glyph unicode="&#xe9d7;" glyph-name="star-empty" d="M512 759.467l68.267-160 21.333-46.933 51.2-4.267 172.8-17.067-168.533-149.333 10.667-51.2 38.4-168.533-149.333 87.467-44.8 27.733-44.8-25.6-149.333-87.467 38.4 168.533 10.667 51.2-38.4 34.133-130.133 115.2 172.8 17.067 51.2 4.267 21.333 46.933 68.267 157.867zM512 945.067c-8.533 0-17.067-4.267-19.2-12.8l-128-296.533-324.267-32c-19.2-2.133-25.6-25.6-12.8-38.4l243.2-213.333-70.4-315.733c-4.267-14.933 8.533-25.6 21.333-25.6 4.267 0 6.4 0 10.667 2.133l279.467 164.267 279.467-164.267c4.267-2.133 6.4-2.133 10.667-2.133 12.8 0 23.467 12.8 21.333 25.6l-70.4 315.733 243.2 213.333c14.933 12.8 6.4 36.267-12.8 38.4l-322.133 29.867-128 296.533c-4.267 10.667-12.8 14.933-21.333 14.933v0z" />
<glyph unicode="&#xe9d8;" glyph-name="star-half" d="M983.467 603.733l-322.133 29.867-128 296.533c-4.267 8.533-12.8 12.8-19.2 12.8-8.533 0-17.067-4.267-19.2-12.8l-128-296.533-326.4-29.867c-19.2-2.133-25.6-25.6-12.8-38.4l243.2-213.333-70.4-315.733c-4.267-14.933 8.533-25.6 21.333-25.6 4.267 0 6.4 0 10.667 2.133l279.467 164.267 279.467-164.267c4.267-2.133 6.4-2.133 10.667-2.133 12.8 0 23.467 12.8 21.333 25.6l-70.4 315.733 243.2 213.333c12.8 12.8 6.4 36.267-12.8 38.4zM695.467 416l-38.4-34.133 10.667-51.2 38.4-168.533-149.333 87.467-44.8 27.733v482.133l68.267-160 21.333-46.933 51.2-4.267 172.8-17.067-130.133-115.2z" />
<glyph unicode="&#xe9d9;" glyph-name="star-full" d="M531.2 932.267l128-296.533 322.133-29.867c19.2-2.133 25.6-25.6 12.8-38.4l-243.2-213.333 70.4-315.733c4.267-19.2-14.933-34.133-32-23.467l-277.333 162.133-279.467-164.267c-17.067-10.667-36.267 4.267-32 23.467l70.4 315.733-243.2 213.333c-14.933 12.8-6.4 36.267 12.8 38.4l322.133 29.867 128 296.533c8.533 19.2 34.133 19.2 40.533 2.133z" />
<glyph unicode="&#xe9da;" glyph-name="heart" d="M512 785.067v0l-29.867 29.867c-61.867 59.733-153.6 87.467-249.6 64-108.8-25.6-181.333-123.733-189.867-234.667-21.333-347.733 469.333-610.133 469.333-610.133s490.667 262.4 469.333 610.133c-6.4 110.933-81.067 209.067-189.867 234.667-96 23.467-187.733-6.4-249.6-64l-29.867-29.867z" />
<glyph unicode="&#xea0e;" glyph-name="blocked" d="M512 940.8c-264.533 0-480-215.467-480-480s215.467-480 480-480c264.533 0 480 215.467 480 480s-215.467 480-480 480zM908.8 460.8c0-93.867-32-181.333-87.467-247.467l-556.8 556.8c66.133 53.333 153.6 87.467 247.467 87.467 217.6 0 396.8-179.2 396.8-396.8zM115.2 460.8c0 93.867 32 181.333 87.467 247.467l556.8-556.8c-68.267-55.467-153.6-87.467-247.467-87.467-217.6 0-396.8 179.2-396.8 396.8z" />
<glyph unicode="&#xea56;" glyph-name="circle" d="M512-19.2c-264.533 0-480 215.467-480 480s215.467 480 480 480c264.533 0 480-215.467 480-480s-215.467-480-480-480zM512 834.133c-204.8 0-373.333-168.533-373.333-373.333s168.533-373.333 373.333-373.333 373.333 168.533 373.333 373.333-168.533 373.333-373.333 373.333z" />
</font>
</defs>
</svg>
