<?xml version="1.0" standalone="no"?>
<!DOCTYPE svg PUBLIC "-//W3C//DTD SVG 1.1//EN" "http://www.w3.org/Graphics/SVG/1.1/DTD/svg11.dtd" >
<svg xmlns="http://www.w3.org/2000/svg">
<metadata>Generated by IcoMoon</metadata>
<defs>
<font id="icomoon" horiz-adv-x="1024">
<font-face units-per-em="1024" ascent="960" descent="-64" />
<missing-glyph horiz-adv-x="1024" />
<glyph unicode="&#x20;" horiz-adv-x="512" d="" />
<glyph unicode="&#xe153;" glyph-name="flag" d="M614 682.667h240v-426h-300l-16 84h-240v-298h-84v726h384z" />
<glyph unicode="&#xe5c5;" glyph-name="arrow_drop_down" d="M298 512.667h428l-214-214z" />
<glyph unicode="&#xe5c7;" glyph-name="arrow_drop_up" d="M298 340.667l214 214 214-214h-428z" />
<glyph unicode="&#xe7fd;" glyph-name="person" d="M512 384c153.6 0 460.8-76.8 460.8-238.080v-145.92c0-15.36-10.24-25.6-25.6-25.6h-870.4c-15.36 0-25.6 10.24-25.6 25.6v145.92c0 161.28 307.2 238.080 460.8 238.080zM739.84 668.16c0-125.833-102.007-227.84-227.84-227.84s-227.84 102.007-227.84 227.84c0 125.833 102.007 227.84 227.84 227.84s227.84-102.007 227.84-227.84z" />
<glyph unicode="&#xe8b8;" glyph-name="settings" d="M512 601.6c92.16 0 166.4-74.24 166.4-166.4s-74.24-166.4-166.4-166.4-166.4 74.24-166.4 166.4 74.24 166.4 166.4 166.4zM865.28 481.28l99.84 76.8c7.68 7.68 10.24 20.48 5.12 30.72l-94.72 163.84c-7.68 12.8-20.48 15.36-30.72 10.24l-117.76-46.080c-25.6 17.92-51.2 35.84-79.36 46.080l-17.92 125.44c-2.56 10.24-10.24 20.48-23.040 20.48h-192c-10.24 0-20.48-7.68-23.040-20.48l-17.92-125.44c-28.16-10.24-56.32-25.6-79.36-46.080l-115.2 46.080c-10.24 5.12-23.040 2.56-28.16-7.68l-94.72-163.84c-7.68-10.24-5.12-25.6 5.12-30.72l99.84-76.8c-2.56-15.36-2.56-30.72-2.56-46.080s0-30.72 2.56-46.080l-99.84-76.8c-7.68-7.68-10.24-20.48-5.12-30.72l94.72-163.84c5.12-15.36 17.92-17.92 28.16-12.8l117.76 46.080c25.6-17.92 51.2-35.84 79.36-46.080l17.92-125.44c2.56-10.24 10.24-20.48 23.040-20.48h192c10.24 0 20.48 7.68 23.040 20.48l17.92 125.44c28.16 10.24 56.32 25.6 79.36 46.080l117.76-46.080c10.24-5.12 23.040-2.56 28.16 7.68l94.72 163.84c7.68 10.24 5.12 25.6-5.12 30.72l-99.84 76.8c2.56 15.36 2.56 30.72 2.56 46.080s0 33.28-2.56 48.64z" />
<glyph unicode="&#xe8db;" glyph-name="thumb_down" d="M893.44 279.040h-243.2c-15.36 0-25.6-12.8-23.040-28.16l35.84-171.52v-15.36c0-17.92-5.12-33.28-17.92-46.080l-30.72-30.72c-10.24-10.24-25.6-10.24-33.28 0l-243.2 271.36c-15.36 15.36-25.6 35.84-25.6 61.44v430.080c0 53.76 43.52 94.72 94.72 94.72h409.6c35.84 0 66.56-23.040 79.36-53.76l81.92-256c5.12-10.24 5.12-20.48 5.12-33.28v-135.68c-2.56-46.080-40.96-87.040-89.6-87.040zM51.2 268.8v501.76c0 12.8 12.8 23.040 28.16 23.040h148.48c15.36 0 28.16-10.24 28.16-23.040v-499.2c0-12.8-12.8-23.040-28.16-23.040h-148.48c-15.36-2.56-28.16 7.68-28.16 20.48z" />
<glyph unicode="&#xe8dc;" glyph-name="thumb_up" d="M980.48 529.92v-135.68c0-12.8-2.56-23.040-5.12-33.28l-81.92-256c-12.8-30.72-43.52-53.76-79.36-53.76h-409.6c-53.76 0-94.72 43.52-94.72 94.72v427.52c0 25.6 10.24 46.080 25.6 61.44l243.2 271.36c10.24 10.24 25.6 10.24 33.28 0l28.16-30.72c12.8-12.8 17.92-25.6 17.92-46.080v-15.36l-35.84-171.52c-2.56-15.36 7.68-28.16 23.040-28.16h243.2c51.2 2.56 92.16-38.4 92.16-84.48zM51.2 48.64v501.76c0 12.8 12.8 23.040 28.16 23.040h148.48c15.36 0 28.16-10.24 28.16-23.040v-499.2c0-12.8-12.8-23.040-28.16-23.040h-148.48c-15.36-2.56-28.16 7.68-28.16 20.48z" />
<glyph unicode="&#xe900;" glyph-name="codepen" d="M1024 598.112l-0.768 3.712-0.736 2.144c-0.416 1.024-0.768 2.144-1.28 3.2-0.128 0.768-0.64 1.44-0.864 2.144l-1.504 2.848-1.28 2.144-1.888 2.56-1.952 1.92-2.56 1.92-1.952 1.28-2.56 1.888-1.888 1.696-0.64 0.864-467.424 312.704c-14.816 9.888-33.952 9.888-48.736 0l-473.76-316.256-1.632-1.696-2.144-2.4-1.568-1.92-2.144-2.56c-0.864-0.736-1.28-1.28-1.28-1.952l-2.144-2.56-0.864-2.56c-0.864-0.416-0.864-1.696-1.28-2.976l-0.416-2.144c-0.8-1.312-0.8-2.592-0.8-3.872v-319.872c0-1.888 0.128-3.84 0.416-5.76l0.416-1.952c0.224-1.28 0.416-2.56 0.864-3.68l0.64-2.144c0.416-1.152 0.672-2.272 1.152-3.2l0.928-2.144c0-0.416 0.64-1.696 1.28-2.56l1.28-1.696c0.64-0.416 1.28-1.696 1.92-2.56l1.28-1.696 1.696-1.696c0.416-0.544 0.416-1.28 1.28-1.28l2.56-1.792 1.696-1.28 0.416-0.608 468.064-312.736c7.008-5.12 16-6.944 24.32-6.944s16.64 2.56 24.32 7.68l476.064 316 2.208 2.464 1.408 1.92 1.696 2.56 1.28 2.144 1.28 2.976 0.672 2.208 1.28 3.296 0.64 1.92 1.28 3.424v320c0 2.144 0 4.064-0.672 5.984l-0.608 1.92 1.888-0.128zM512.416 330.144l-155.744 104.096 155.744 104.192 155.744-104.096-155.744-104.096zM468.32 614.912l-190.848-127.584-154.144 103.072 344.992 229.984v-205.568zM198.24 434.304l-110.176-73.824v147.232l110.176-73.632zM277.472 380.96l190.848-127.584v-205.664l-344.992 230.016 154.368 103.136v0.16zM556.384 253.408l190.88 127.136 154.144-103.264-345.056-229.984v205.664zM826.464 433.888l110.208 73.376v-147.456l-110.208 73.824zM747.296 486.784l-190.848 127.616v206.080l344.96-229.984-154.112-103.168z" />
<glyph unicode="&#xe901;" glyph-name="facebook" d="M608 755.2h160v192h-160c-123.52 0-224-100.48-224-224v-96h-128v-192h128v-512h192v512h160l32 192h-192v96c0 17.344 14.656 32 32 32z" />
<glyph unicode="&#xe902;" glyph-name="feedly" d="M315.552 11.424l-289.12 291.168c-35.2 35.168-35.2 111.328 0 144.64l414.24 416.096c33.312 33.28 107.552 33.28 140.672 0l416.256-416.128c35.232-35.2 35.232-111.392 0-144.672l-289.248-291.168c-17.536-17.504-44.928-29.28-72.32-29.28h-252.064c-25.44 0.032-50.784 11.776-68.448 29.344zM579.424 124.768c5.856 5.888 5.856 17.632 0 23.456l-56.672 56.672c-5.888 6.4-17.568 6.4-23.424 0l-56.704-56.288c-5.888-5.728-5.888-17.28 0-23.040l44.96-42.88h46.88l45.44 43.52-0.512-1.44zM579.424 365.088c3.936 3.84 3.936 13.664 0 17.568l-60.576 60.128c-3.84 3.872-13.664 3.872-17.568 0l-175.84-175.968c-5.92-6.4-5.92-19.84 0-25.632l40.928-40.96h47.008l166.112 164.48v0.384zM579.424 603.488c3.936 3.872 5.856 15.616 0 19.552l-58.656 58.624c-3.84 4.448-15.584 4.448-21.408 0l-295.008-295.040c-4-3.84-5.984-15.328-2.080-19.168l46.944-44.8h44.928l285.312 280.832z" />
<glyph unicode="&#xe903;" glyph-name="github" d="M512 934.528c-282.88 0-512-229.248-512-512 0-226.272 146.688-418.144 350.080-485.76 25.6-4.832 34.976 11.008 34.976 24.608 0 12.16-0.416 44.384-0.64 87.040-142.432-30.88-172.448 68.704-172.448 68.704-23.296 59.104-56.96 74.88-56.96 74.88-46.368 31.744 3.584 31.104 3.584 31.104 51.424-3.584 78.432-52.736 78.432-52.736 45.664-78.304 119.84-55.68 149.12-42.592 4.608 33.12 17.792 55.68 32.416 68.48-113.696 12.8-233.216 56.832-233.216 253.024 0 55.904 19.84 101.536 52.704 137.376-5.76 12.928-23.040 64.992 4.48 135.52 0 0 42.88 13.728 140.8-52.48 40.96 11.392 84.48 17.024 128 17.28 43.52-0.256 87.040-5.888 128-17.28 97.28 66.208 140.16 52.48 140.16 52.48 27.52-70.528 10.24-122.592 5.12-135.52 32.64-35.84 52.48-81.504 52.48-137.376 0-196.704-119.68-240-233.6-252.576 17.92-15.36 34.56-46.752 34.56-94.72 0-68.512-0.64-123.552-0.64-140.192 0-13.44 8.96-29.44 35.2-24.32 204.832 67.168 351.392 259.168 351.392 485.088 0 282.752-229.248 512-512 512z" />
<glyph unicode="&#xe904;" glyph-name="googleplus" d="M325.76 481.76v-111.744h184.96c-7.392-48-55.904-140.576-184.8-140.576-111.104 0-201.856 92.16-201.856 205.792 0 113.568 90.528 205.728 201.728 205.728 63.36 0 105.76-27.008 129.92-50.272l88.448 85.088c-56.736 53.12-130.4 85.12-218.24 85.12-180.352 0.096-325.92-145.824-325.92-325.664s145.664-325.76 325.76-325.76c188.16 0 312.832 132.192 312.832 318.336 0 21.376-2.304 37.76-5.12 53.984h-307.712zM1024 481.76h-93.152v93.152h-93.152v-93.152h-93.088v-93.056h93.184v-93.184h93.408v93.184h92.8z" />
<glyph unicode="&#xe905;" glyph-name="hatebu" d="M965.696 168.032c0-55.776-45.216-100.992-100.992-100.992s-100.992 45.216-100.992 100.992c0 55.776 45.216 100.992 100.992 100.992s100.992-45.216 100.992-100.992zM772.736 827.872h183.936v-502.368h-183.936v502.368zM492.96 489.888c0 0 127.104 8 127.104 160.32 0 176.352-159.168 177.248-250.016 177.248-58.944 0-88.704 0-127.808 0h-183.936v-760.832h183.936c32.608 0 73.472 0 125.152 0 251.168 0 293.952 137.312 293.952 225.504s-42.752 171.008-168.352 197.728zM252.128 684.16c70.112 0 66.944 0 85.504 0 16.032 0 85.504-6.848 85.504-72.96 0-78.144-60.128-75.488-100.192-75.488s-20.032 0-70.816 0v148.48zM352.32 228.416c-46.752 0-65.472 0-100.224 0v167.008c0 0 44.096 0 102.208 0s102.208-12.032 102.208-83.52-57.44-83.488-104.192-83.488z" />
<glyph unicode="&#xe906;" glyph-name="instagram" d="M512 947.2c-139.104 0-156.448-0.64-211.072-3.072-54.528-2.56-91.648-11.136-124.288-23.808-33.664-13.056-62.24-30.592-90.72-59.040s-46.048-56.992-59.040-90.72c-12.672-32.64-21.28-69.76-23.808-124.288-2.56-54.624-3.072-71.968-3.072-211.072s0.64-156.448 3.072-211.072c2.56-54.496 11.136-91.648 23.808-124.288 13.056-33.632 30.592-62.24 59.040-90.72 28.448-28.416 56.992-46.048 90.72-59.040 32.672-12.64 69.792-21.28 124.288-23.808 54.624-2.56 71.968-3.072 211.072-3.072s156.448 0.64 211.072 3.072c54.496 2.56 91.648 11.168 124.288 23.808 33.632 13.056 62.24 30.624 90.72 59.040 28.416 28.448 46.048 56.96 59.040 90.72 12.64 32.64 21.28 69.792 23.808 124.288 2.56 54.624 3.072 71.968 3.072 211.072s-0.64 156.448-3.072 211.072c-2.56 54.496-11.168 91.68-23.808 124.288-13.056 33.664-30.624 62.24-59.040 90.72-28.448 28.448-56.96 46.048-90.72 59.040-32.64 12.672-69.792 21.28-124.288 23.808-54.624 2.56-71.968 3.072-211.072 3.072zM512 855.040c136.672 0 152.96-0.672 206.944-3.040 49.92-2.336 77.024-10.624 95.008-17.696 23.968-9.248 40.96-20.352 58.976-38.24 17.888-17.92 28.96-34.944 38.24-58.912 7.008-18.016 15.36-45.088 17.632-95.008 2.432-54.016 2.976-70.24 2.976-206.944s-0.64-152.96-3.168-206.944c-2.592-49.92-10.912-77.024-17.952-95.008-9.568-23.968-20.448-40.96-38.368-58.976-17.888-17.888-35.168-28.96-58.88-38.24-17.92-7.008-45.44-15.36-95.36-17.632-54.368-2.432-70.368-2.976-207.328-2.976-136.992 0-152.992 0.64-207.328 3.168-49.952 2.592-77.472 10.912-95.392 17.952-24.288 9.568-40.96 20.448-58.848 38.368-17.952 17.888-29.44 35.168-38.4 58.88-7.040 17.92-15.328 45.44-17.92 95.36-1.92 53.76-2.592 70.368-2.592 206.688 0 136.352 0.672 152.992 2.592 207.392 2.592 49.92 10.88 77.408 17.92 95.328 8.96 24.32 20.448 40.96 38.4 58.912 17.888 17.888 34.56 29.408 58.848 38.304 17.92 7.072 44.832 15.392 94.752 17.952 54.4 1.92 70.4 2.56 207.328 2.56l1.92-1.28zM512 698.112c-145.28 0-262.912-117.76-262.912-262.912 0-145.28 117.76-262.912 262.912-262.912 145.28 0 262.912 117.76 262.912 262.912 0 145.28-117.76 262.912-262.912 262.912zM512 264.544c-94.304 0-170.656 76.384-170.656 170.656s76.384 170.656 170.656 170.656 170.656-76.384 170.656-170.656-76.384-170.656-170.656-170.656zM846.752 708.48c0-33.92-27.552-61.44-61.44-61.44-33.92 0-61.44 27.552-61.44 61.44s27.552 61.408 61.44 61.408c33.824 0.032 61.44-27.52 61.44-61.408z" />
<glyph unicode="&#xe907;" glyph-name="line" d="M826.24 526.368c14.88 0 26.88-12.16 26.88-26.912 0-14.72-12-26.88-26.88-26.88h-74.88v-48h74.88c14.88 0 26.88-12.064 26.88-26.88 0-14.688-12-26.848-26.88-26.848h-101.792c-14.72 0-26.752 12.16-26.752 26.848v203.552c0 14.72 12.032 26.88 26.88 26.88h101.792c14.752 0 26.752-12.16 26.752-26.88 0-14.88-12-26.88-26.88-26.88h-74.88v-48h74.88zM661.76 397.696c0-11.52-7.424-21.76-18.432-25.44-2.72-0.896-5.664-1.312-8.48-1.312-8.992 0-16.672 3.84-21.76 10.656l-104.224 141.536v-125.44c0-14.688-11.904-26.848-26.912-26.848-14.752 0-26.72 12.16-26.72 26.848v203.552c0 11.52 7.392 21.76 18.336 25.376 2.56 0.992 5.792 1.408 8.288 1.408 8.32 0 16-4.448 21.12-10.848l105.056-142.080v126.112c0 14.72 12.032 26.88 26.88 26.88 14.72 0 26.88-12.16 26.88-26.88v-203.552zM416.8 397.696c0-14.688-12.032-26.848-26.912-26.848-14.72 0-26.752 12.16-26.752 26.848v203.552c0 14.72 12.032 26.88 26.88 26.88 14.752 0 26.784-12.16 26.784-26.88v-203.552zM311.584 370.848h-101.792c-14.72 0-26.88 12.16-26.88 26.848v203.552c0 14.72 12.16 26.88 26.88 26.88 14.848 0 26.88-12.16 26.88-26.88v-176.672h74.912c14.848 0 26.848-12.064 26.848-26.88 0-14.688-12.032-26.848-26.848-26.848zM1024 507.136c0 229.152-229.76 415.648-512 415.648s-512-186.496-512-415.648c0-205.28 182.176-377.248 428.16-409.952 16.672-3.488 39.392-11.008 45.152-25.184 5.12-12.832 3.36-32.672 1.632-46.080l-7.008-43.52c-1.92-12.832-10.24-50.592 44.768-27.52 55.072 23.008 295.072 173.984 402.592 297.6 73.568 80.608 108.704 163.168 108.704 254.624z" />
<glyph unicode="&#xe908;" glyph-name="medium" d="M121.44 675.84c1.28 12.576-3.552 24.992-12.928 33.44l-95.584 115.2v17.184h296.832l229.472-503.264 201.728 503.264h283.040v-17.184l-81.792-78.368c-7.040-5.376-10.528-14.208-9.088-22.944v-576c-1.44-8.704 2.048-17.504 9.088-22.912l79.776-78.368v-17.184h-401.504v17.184l82.656 80.288c8.096 8.096 8.096 10.496 8.096 22.944v465.536l-229.984-584.032h-31.008l-267.744 584.032v-391.424c-2.208-16.48 3.232-33.024 14.816-44.928l107.52-130.56v-17.152h-304.864v17.184l107.52 130.56c11.52 11.872 16.64 28.576 13.92 44.896v452.608z" />
<glyph unicode="&#xe909;" glyph-name="pinterest" d="M512.736 947.2c-282.496 0-511.488-228.992-511.488-511.456 0-216.704 134.752-401.792 325.024-476.256-4.48 40.48-8.48 102.528 1.76 146.72 9.344 39.968 60 254.176 60 254.176s-15.328 30.72-15.328 76c0 70.944 41.248 124.192 92.512 124.192 43.68 0 64.768-32.8 64.768-72.032 0-43.904-27.872-109.536-42.336-170.336-12.16-50.912 25.6-92.384 75.744-92.384 90.784 0 160.768 95.776 160.768 234.112 0 122.080-88.032 207.744-213.664 207.744-145.504 0-230.784-109.312-230.784-221.824 0-44.064 16.8-91.424 37.92-116.96 4.224-5.12 4.768-9.6 3.616-14.72-3.84-16-12.512-51.168-14.24-58.144-2.272-9.6-7.328-11.552-17.12-7.040-63.776 29.44-103.808 122.784-103.808 198.24 0 161.12 117.248 309.408 337.92 309.408 177.408 0 315.392-126.592 315.392-295.392 0-176.416-111.232-318.368-265.952-318.368-51.808 0-100.448 26.848-117.664 58.848l-31.968-121.504c-11.488-44.576-42.848-100.352-63.904-134.24 47.904-14.72 98.4-22.816 151.456-22.816 281.888 0 511.36 228.896 511.36 511.456 0 282.592-229.472 511.456-511.36 511.456l1.376 1.12z" />
<glyph unicode="&#xe90a;" glyph-name="pocket" d="M802.688 509.472l-240.896-231.2c-13.664-13.024-31.136-19.552-48.672-19.552-17.504 0-35.040 6.528-48.672 19.552l-240.896 231.2c-28.032 26.784-28.896 71.296-2.080 99.232 26.88 28.032 71.296 28.96 99.2 2.144l192.48-184.416 192.736 184.416c28.16 26.912 72.416 25.888 99.232-2.080 26.912-27.52 26.24-72.32-1.92-99.232l-0.48-0.032zM1019.552 831.456c-12.768 36.608-48 61.28-87.072 61.28h-839.52c-38.4 0-73.248-24.064-86.912-59.936-4-10.656-6.048-21.792-6.048-33.024v-309.12l3.584-61.472c14.848-139.808 87.328-262.048 199.776-347.264 1.92-1.536 4-2.976 6.112-4.48l1.28-0.992c60.192-43.936 127.52-73.728 200.288-88.416 33.536-6.752 67.872-10.24 101.92-10.24 31.52 0 63.2 2.848 94.24 8.704 3.744 1.248 7.52 1.92 11.264 2.56 0.992 0 2.080 0.64 3.168 1.248 69.664 15.36 134.304 44.192 192.352 86.4l1.248 1.312 5.76 4.48c112.096 85.12 184.48 207.456 199.936 347.648l3.104 61.472v308.608c0 10.72-1.312 21.344-5.152 31.648l0.736-0.416z" />
<glyph unicode="&#xe90b;" glyph-name="rss" d="M819.168-76.8c0 449.408-369.76 819.2-819.168 819.2v204.8c561.696 0 1024-462.304 1024-1024h-204.832zM140.416 204.16c77.408 0 140.512-63.104 140.512-140.576 0-77.344-63.36-140.384-140.832-140.384-77.344 0-140.064 62.88-140.064 140.384s62.944 140.544 140.416 140.576zM678.784-76.8h-199.040c0 263.2-216.544 479.776-479.744 479.776v199.040c372.352 0 678.784-306.528 678.784-678.816z" />
<glyph unicode="&#xe90c;" glyph-name="tumblr" d="M621.344-76.8c-217.312 0-300 160.256-300 273.536v334.592h-103.072v132.224c154.88 56.032 192.512 196.096 200.96 276 0.608 5.472 4.896 7.648 7.392 7.648h150.048v-260.864h204.832v-155.008h-205.664v-318.72c0.672-42.72 16-101.152 94.176-101.152h3.84c26.912 0.864 63.392 8.736 82.592 17.888l49.312-146.144c-18.592-27.136-102.4-58.624-177.312-59.904h-7.584l0.48-0.096z" />
<glyph unicode="&#xe90d;" glyph-name="twitter" d="M1022.048 752.256c-37.76-16.608-78.080-27.904-120.544-33.056 43.264 26.080 76.544 67.168 92.288 116.192-40.576-23.68-85.536-40.928-133.408-50.528-38.24 40.928-92.704 66.528-153.216 66.528-115.936 0-209.92-93.984-209.92-209.792 0-16.64 1.92-32.64 5.408-47.968-174.496 8.224-329.184 92.032-432.672 218.72-18.208-30.816-28.416-66.592-28.416-105.6 0-72.96 37.12-137.088 93.344-174.752-34.432 1.12-66.816 10.592-95.072 26.272v-2.592c0-101.76 72.224-186.624 168.352-205.952-17.632-4.736-36.224-7.296-55.296-7.296-13.408 0-26.24 1.28-39.072 3.68 26.912-83.328 104.32-144.096 196.448-145.792-71.68-56.288-162.528-89.824-260.352-89.824-16.64 0-33.248 0.992-49.92 2.848 93.408-59.488 203.424-94.24 322.432-94.24 386.304 0 597.28 319.84 597.28 596.736 0 8.928 0 17.92-0.64 26.88 40.992 29.408 76.8 66.56 104.96 108.704l-2.016 0.864z" />
<glyph unicode="&#xe90e;" glyph-name="wordpress" d="M128 435.2c0-148.032 88.32-275.968 216.416-336.576l-183.168 488.768c-21.312-46.496-33.248-97.984-33.248-152.192zM771.232 454.080c0 46.24-17.056 78.24-31.648 103.136-19.456 30.816-37.728 56.896-37.728 87.712 0 34.368 26.752 66.368 64.48 66.368 1.696 0 3.328-0.192 4.96-0.288-68.32 60.96-159.328 98.208-259.296 98.208-134.144 0-252.192-67.040-320.832-168.576 9.024-0.288 17.504-0.448 24.704-0.448 40.16 0 102.336 4.768 102.336 4.768 20.704 1.184 23.136-28.448 2.464-30.816 0 0-20.8-2.368-43.936-3.552l139.84-405.12 84.032 245.472-59.808 159.648c-20.672 1.184-40.288 3.552-40.288 3.552-20.704 1.184-18.272 32 2.432 30.816 0 0 63.392-4.768 101.12-4.768 40.16 0 102.336 4.768 102.336 4.768 20.704 1.184 23.136-28.448 2.432-30.816 0 0-20.832-2.368-43.936-3.552l138.784-402.016 38.304 124.64c16.576 51.744 29.216 88.896 29.216 120.896zM518.752 402.496l-115.232-326.048c34.4-9.856 70.784-15.232 108.48-15.232 44.704 0 87.616 7.52 127.52 21.216-1.024 1.6-1.984 3.296-2.752 5.152l-118.016 314.944zM848.96 614.624c1.664-11.904 2.592-24.672 2.592-38.464 0-37.92-7.296-80.608-29.216-133.952l-117.28-330.272c114.176 64.832 190.944 185.28 190.944 323.264 0 65.024-17.056 126.176-47.040 179.424zM512 947.2c-282.784 0-512-229.216-512-512s229.216-512 512-512 512 229.216 512 512-229.216 512-512 512zM512-12.8c-247.424 0-448 200.576-448 448s200.576 448 448 448 448-200.576 448-448-200.576-448-448-448z" />
<glyph unicode="&#xe90f;" glyph-name="youtube" d="M1002.464 682.464c-12.352 43.296-45.792 76.736-88.192 88.864l-0.896 0.224c-79.776 21.376-400.896 21.376-400.896 21.376s-320.288 0.416-400.896-21.376c-43.296-12.352-76.736-45.792-88.864-88.192l-0.224-0.896c-14.176-72.992-22.272-156.896-22.272-242.72 0-1.728 0-3.488 0-5.216v0.256c0-1.184 0-2.624 0-4.032 0-85.824 8.096-169.728 23.584-251.040l-1.312 8.32c12.352-43.296 45.792-76.736 88.192-88.864l0.896-0.224c79.712-21.408 400.896-21.408 400.896-21.408s320.256 0 400.896 21.408c43.296 12.352 76.736 45.792 88.864 88.192l0.224 0.896c13.6 71.456 21.376 153.696 21.376 237.728 0 3.168 0 6.336-0.032 9.504v-0.48c0.032 2.944 0.032 6.432 0.032 9.92 0 84.032-7.776 166.272-22.656 245.984l1.28-8.256zM409.984 281.568v306.912l267.264-153.696z" />
<glyph unicode="&#xe910;" glyph-name="chevron-small-down" d="M687.002 570.419c13.875 13.722 36.301 13.722 50.074 0 13.824-13.722 13.926-35.891 0-49.613l-200.090-196.096c-13.824-13.722-36.198-13.722-50.125 0l-200.090 196.096c-13.824 13.67-13.824 35.891 0 49.613 13.875 13.722 36.301 13.722 50.074 0l175.155-160.819 175.002 160.819z" />
<glyph unicode="&#xe911;" glyph-name="chevron-small-left" d="M621.619 285.798c13.722-13.875 13.722-36.301 0-50.074-13.722-13.824-35.891-13.926-49.613 0l-196.096 200.090c-13.722 13.824-13.722 36.198 0 50.125l196.096 200.090c13.67 13.824 35.891 13.824 49.613 0 13.722-13.875 13.722-36.301 0-50.074l-160.819-175.155 160.819-175.002z" />
<glyph unicode="&#xe912;" glyph-name="chevron-small-up" d="M336.998 351.181c-13.875-13.722-36.301-13.722-50.074 0s-13.926 35.891 0 49.613l200.090 196.096c13.824 13.722 36.198 13.722 50.125 0l200.090-196.096c13.824-13.67 13.824-35.891 0-49.613-13.875-13.722-36.301-13.722-50.125 0l-175.104 160.819-175.002-160.819z" />
<glyph unicode="&#xe913;" glyph-name="megaphone" d="M775.68 642.56l89.6 51.2c12.8 7.68 28.16 2.56 35.84-10.24v0c7.68-12.8 2.56-28.16-10.24-35.84l-89.6-51.2c-12.8-7.68-28.16-2.56-35.84 10.24v0c-5.12 12.8 0 28.16 10.24 35.84zM855.040 450.56l102.4-7.68c15.36 0 25.6-12.8 23.040-28.16v0c0-15.36-12.8-25.6-28.16-23.040l-102.4 7.68c-15.36 0-25.6 12.8-23.040 28.16v0c2.56 12.8 15.36 23.040 28.16 23.040zM629.76 783.36l43.52 92.16c5.12 12.8 20.48 17.92 33.28 12.8v0c12.8-5.12 17.92-20.48 12.8-33.28l-43.52-92.16c-5.12-12.8-20.48-17.92-33.28-12.8v0c-12.8 5.12-20.48 20.48-12.8 33.28zM396.8 696.32c-53.76-145.92-87.040-176.64-199.68-263.68-7.68-2.56-12.8-7.68-20.48-10.24-5.12-2.56-12.8-7.68-20.48-12.8-20.48-12.8-40.96-23.040-40.96-23.040-69.12-38.4-61.44-115.2-20.48-186.88 43.52-74.24 107.52-112.64 171.52-74.24 0 0 10.24 7.68 25.6 15.36 12.8-33.28 46.080-125.44 53.76-148.48 7.68-17.92 15.36-33.28 33.28-20.48 10.24 5.12 58.88 33.28 66.56 38.4s17.92 15.36 10.24 35.84c-5.12 15.36-40.96 110.080-56.32 151.040 94.72 40.96 145.92 46.080 276.48 20.48l-279.040 478.72zM427.52 785.92c-2.56-7.68-5.12-15.36-7.68-23.040l322.56-560.64c7.68-2.56 15.36-2.56 23.040-5.12 40.96-10.24 64 7.68 43.52 40.96l-325.12 565.76c-17.92 30.72-46.080 20.48-56.32-17.92z" />
<glyph unicode="&#xe914;" glyph-name="download" d="M665.6 537.6v281.6c0 15.36-10.24 25.6-25.6 25.6h-256c-15.36 0-25.6-10.24-25.6-25.6v-281.6h-225.28c-10.24 0-17.92-12.8-10.24-23.040l368.64-368.64c10.24-10.24 25.6-10.24 35.84 0l368.64 368.64c7.68 7.68 2.56 23.040-10.24 23.040h-220.16zM25.6 25.6h972.8c15.36 0 25.6-10.24 25.6-25.6v-51.2c0-15.36-10.24-25.6-25.6-25.6h-972.8c-15.36 0-25.6 10.24-25.6 25.6v51.2c0 15.36 10.24 25.6 25.6 25.6z" />
<glyph unicode="&#xe915;" glyph-name="light-bulb" d="M358.4 76.8v-69.12c0-15.36 12.8-25.6 25.6-25.6h10.24c7.68-17.92 25.6-30.72 48.64-30.72h140.8c20.48 0 38.4 12.8 48.64 30.72h10.24c15.36 0 25.6 12.8 25.6 25.6v69.12h-309.76zM496.64 924.16c-192-7.68-348.16-168.96-350.72-360.96-2.56-143.36 76.8-268.8 197.12-330.24 10.24-5.12 17.92-15.36 17.92-28.16v-76.8h304.64v76.8c0 12.8 7.68 23.040 17.92 28.16 117.76 61.44 197.12 184.32 197.12 325.12-2.56 207.36-174.080 373.76-384 366.080zM632.32 325.12c-35.84-17.92-61.44-51.2-69.12-92.16h-102.4c-7.68 38.4-33.28 71.68-69.12 92.16-89.6 46.080-143.36 138.24-140.8 235.52 2.56 135.68 115.2 250.88 250.88 256 71.68 2.56 140.8-23.040 192-71.68s79.36-117.76 79.36-189.44c0-94.72-53.76-184.32-140.8-230.4z" />
<glyph unicode="&#xe916;" glyph-name="alert" d="M1007.543 69.486l-451.657 782.629c-20.114 34.743-69.486 34.743-89.6 0l-449.829-782.629c-20.114-34.743 5.486-76.8 43.886-76.8h903.314c40.229 0 64 42.057 43.886 76.8zM512 691.2c12.8 0 49.371 0 69.486 0l-27.429-418.743h-84.114l-27.429 418.743c20.114 0 54.857 0 69.486 0zM563.2 93.257c-12.8-12.8-29.257-20.114-51.2-20.114-20.114 0-36.571 7.314-51.2 20.114-12.8 12.8-20.114 29.257-20.114 51.2 0 20.114 7.314 38.4 20.114 51.2 14.629 12.8 31.086 20.114 51.2 20.114s36.571-7.314 51.2-20.114 20.114-31.086 20.114-51.2c-1.829-20.114-7.314-36.571-20.114-51.2z" />
<glyph unicode="&#xe917;" glyph-name="hatena" d="M501.029 159.086c-32.914 0-58.514-10.971-80.457-32.914s-32.914-47.543-32.914-80.457c0-32.914 10.971-58.514 32.914-80.457s49.371-32.914 80.457-32.914c31.086 0 56.686 10.971 78.629 32.914s32.914 49.371 32.914 80.457c0 32.914-10.971 58.514-31.086 80.457s-47.543 32.914-80.457 32.914zM735.086 863.086c-54.857 49.371-128 74.971-219.429 74.971-98.743 0-175.543-27.429-228.571-82.286s-80.457-120.686-82.286-199.314v-18.286h149.943l1.829 16.457c3.657 43.886 18.286 76.8 45.714 102.4s64 38.4 109.714 38.4c47.543 0 82.286-12.8 106.057-38.4 25.6-21.943 38.4-53.029 38.4-91.429 0-31.086-7.314-56.686-21.943-78.629-18.286-25.6-45.714-47.543-78.629-67.657-47.543-27.429-84.114-60.343-107.886-95.086-23.771-36.571-34.743-76.8-34.743-124.343v-80.457h153.6v62.171c0 32.914 7.314 58.514 20.114 78.629 14.629 20.114 42.057 42.057 82.286 67.657 45.714 27.429 80.457 62.171 107.886 102.4s40.229 89.6 40.229 146.286c1.829 73.143-27.429 137.143-82.286 186.514z" />
<glyph unicode="&#xe918;" glyph-name="index" d="M991.086 45.714h-740.571c-7.314 0-10.971 5.486-10.971 10.971v69.486c0 7.314 5.486 10.971 10.971 10.971h740.571c7.314 0 10.971-5.486 10.971-10.971v-69.486c0-5.486-5.486-10.971-10.971-10.971zM128 32.914h-95.086c-7.314 0-10.971 5.486-10.971 10.971v95.086c0 7.314 5.486 10.971 10.971 10.971h95.086c7.314 0 10.971-5.486 10.971-10.971v-95.086c1.829-5.486-3.657-10.971-10.971-10.971zM991.086 274.286h-740.571c-7.314 0-10.971 5.486-10.971 10.971v69.486c0 7.314 5.486 10.971 10.971 10.971h740.571c7.314 0 10.971-5.486 10.971-10.971v-69.486c0-5.486-5.486-10.971-10.971-10.971zM128 261.486h-95.086c-7.314 0-10.971 5.486-10.971 10.971v95.086c0 7.314 5.486 10.971 10.971 10.971h95.086c7.314 0 10.971-5.486 10.971-10.971v-95.086c1.829-5.486-3.657-10.971-10.971-10.971zM991.086 502.857h-740.571c-7.314 0-10.971 5.486-10.971 10.971v69.486c0 7.314 5.486 10.971 10.971 10.971h740.571c7.314 0 10.971-5.486 10.971-10.971v-69.486c0-5.486-5.486-10.971-10.971-10.971zM128 490.057h-95.086c-7.314 0-10.971 5.486-10.971 10.971v95.086c0 7.314 5.486 10.971 10.971 10.971h95.086c7.314 0 10.971-5.486 10.971-10.971v-95.086c1.829-5.486-3.657-10.971-10.971-10.971zM991.086 731.429h-740.571c-7.314 0-10.971 5.486-10.971 10.971v71.314c0 7.314 5.486 10.971 10.971 10.971h740.571c7.314 0 10.971-5.486 10.971-10.971v-69.486c0-7.314-5.486-12.8-10.971-12.8zM128 718.629h-95.086c-7.314 0-10.971 5.486-10.971 10.971v96.914c0 5.486 5.486 10.971 10.971 10.971h95.086c7.314 0 10.971-5.486 10.971-10.971v-95.086c1.829-7.314-3.657-12.8-10.971-12.8z" />
<glyph unicode="&#xe919;" glyph-name="minus" d="M819.2 460.8c0-28.314-2.458-51.2-30.771-51.2h-552.858c-28.262 0-30.771 22.886-30.771 51.2s2.509 51.2 30.771 51.2h552.909c28.262 0 30.72-22.886 30.72-51.2z" />
<glyph unicode="&#xe91a;" glyph-name="book" d="M870.4 668.16v-529.971c0-26.726-23.142-39.475-51.2-59.392-22.528-16.026-51.2 3.84-51.2 30.054 0 0 0 507.136 0 517.837 0 10.803-3.789 21.094-16.077 27.392s-396.186 208.128-396.186 208.128c-6.195 2.304-33.229 19.354-69.274 0.819-34.253-17.613-52.89-36.762-57.651-45.773l418.816-229.478c11.11-5.837 17.971-14.848 17.971-26.419v-553.062c0-11.776-7.27-24.371-18.893-29.952-5.325-2.662-11.213-3.942-17.050-3.942-6.912 0-13.875 1.69-19.763 5.325-11.008 6.707-398.029 244.019-423.578 259.43-12.288 7.373-26.675 22.477-26.982 33.69l-5.734 526.643c0 10.138-1.178 28.006 14.797 52.838 35.686 55.501 160.205 118.63 223.232 85.914l460.749-233.216c11.11-5.734 18.022-17.203 18.022-36.864z" />
<glyph unicode="&#xe91b;" glyph-name="menu-thin" d="M972.8 665.6h-921.6c-9.143 0-12.8 1.829-12.8 5.486v34.743c0 3.657 7.314 5.486 12.8 5.486h921.6c9.143 0 12.8-1.829 12.8-5.486v-34.743c1.829-3.657-5.486-5.486-12.8-5.486zM972.8 413.257h-921.6c-9.143 0-14.629 1.829-14.629 3.657v36.571c0 3.657 7.314 5.486 12.8 5.486h921.6c9.143 0 12.8-1.829 12.8-5.486v-36.571c3.657-1.829-3.657-3.657-10.971-3.657zM972.8 159.086h-921.6c-9.143 0-12.8 3.657-12.8 5.486v34.743c0 3.657 7.314 5.486 12.8 5.486h921.6c9.143 0 12.8-1.829 12.8-5.486v-34.743c1.829-1.829-5.486-5.486-12.8-5.486z" />
<glyph unicode="&#xe91c;" glyph-name="plus" d="M819.2 460.8c0-28.314-2.458-51.2-30.771-51.2h-225.229v-225.229c0-28.262-22.886-30.771-51.2-30.771s-51.2 2.509-51.2 30.771v225.229h-225.229c-28.262 0-30.771 22.886-30.771 51.2s2.509 51.2 30.771 51.2h225.229v225.229c0 28.314 22.886 30.771 51.2 30.771s51.2-2.458 51.2-30.771v-225.229h225.229c28.314 0 30.771-22.886 30.771-51.2z" />
<glyph unicode="&#xe91d;" glyph-name="info" d="M512 921.6c-268.8 0-486.4-217.6-486.4-486.4s217.6-486.4 486.4-486.4c268.8 0 486.4 217.6 486.4 486.4s-217.6 486.4-486.4 486.4zM512 30.72c-222.72 0-404.48 181.76-404.48 404.48s181.76 404.48 404.48 404.48 404.48-181.76 404.48-404.48-181.76-404.48-404.48-404.48zM593.92 650.24c0-45.243-36.677-81.92-81.92-81.92s-81.92 36.677-81.92 81.92c0 45.243 36.677 81.92 81.92 81.92s81.92-36.677 81.92-81.92zM619.52 197.12h-56.32v299.52h-166.4c0-12.8 23.040-30.72 64-40.96v-258.56h-56.32c-10.24 0-20.48-7.68-20.48-15.36v-43.52h256v46.080c0 10.24-7.68 12.8-20.48 12.8z" />
<glyph unicode="&#xe91e;" glyph-name="amazon" d="M886.4 118.4c-422.4-201.6-684.8-32-851.2 70.4-9.6 6.4-25.6 0-12.8-19.2 57.6-67.2 236.8-230.4 476.8-230.4s380.8 128 400 153.6c16 19.2 6.4 32-12.8 25.6v0zM1004.8 182.4c-9.6 12.8-70.4 16-105.6 12.8s-89.6-25.6-86.4-38.4c3.2-6.4 6.4-3.2 32 0s96 9.6 108.8-6.4c12.8-19.2-22.4-108.8-28.8-124.8-6.4-12.8 3.2-19.2 12.8-9.6 12.8 9.6 32 35.2 51.2 73.6 16 32 25.6 80 16 92.8v0zM208 380.8c0 51.2 12.8 96 38.4 134.4s60.8 64 105.6 83.2c41.6 16 89.6 28.8 150.4 38.4 19.2 3.2 54.4 6.4 99.2 9.6v16c0 48-6.4 80-16 96-16 22.4-41.6 35.2-73.6 35.2h-9.6c-25.6-3.2-48-9.6-64-22.4-19.2-12.8-28.8-32-35.2-57.6-3.2-16-9.6-22.4-22.4-25.6l-131.2 16c-12.8 3.2-19.2 9.6-19.2 19.2 0 3.2 0 6.4 0 6.4 12.8 67.2 44.8 118.4 96 150.4s108.8 51.2 176 54.4h28.8c86.4 0 153.6-22.4 201.6-67.2 6.4-6.4 16-16 22.4-25.6s12.8-16 16-22.4c3.2-6.4 6.4-16 9.6-28.8s6.4-22.4 6.4-25.6c0-6.4 3.2-16 3.2-32s0-25.6 0-28.8v-275.2c0-19.2 3.2-38.4 9.6-54.4s9.6-28.8 16-35.2c6.4-6.4 12.8-19.2 25.6-35.2 3.2-6.4 6.4-12.8 6.4-19.2s-3.2-12.8-9.6-16c-64-54.4-96-83.2-102.4-89.6-9.6-6.4-19.2-6.4-32-3.2-9.6 9.6-19.2 19.2-28.8 25.6s-12.8 12.8-16 19.2c-3.2 3.2-9.6 9.6-16 22.4-6.4 9.6-12.8 19.2-16 22.4-41.6-44.8-83.2-73.6-124.8-86.4-25.6-6.4-57.6-12.8-96-12.8-57.6 0-105.6 19.2-144 54.4-35.2 41.6-54.4 92.8-54.4 160zM403.2 403.2c0-28.8 6.4-54.4 22.4-70.4 16-19.2 35.2-25.6 60.8-25.6 3.2 0 6.4 0 9.6 0s6.4 0 9.6 0c32 9.6 57.6 28.8 73.6 60.8 9.6 12.8 16 28.8 19.2 48 3.2 16 6.4 32 6.4 41.6s0 28.8 0 51.2v28.8c-44.8 0-76.8-3.2-99.2-9.6-70.4-19.2-102.4-60.8-102.4-124.8z" />
<glyph unicode="&#xe91f;" glyph-name="batsu" d="M919.040 133.12l-302.080 302.080 302.080 302.080c2.56 2.56 2.56 10.24 0 12.8l-92.16 92.16c-2.56 2.56-10.24 2.56-12.8 0l-302.080-302.080-302.080 302.080c0 0-2.56 2.56-5.12 2.56s-5.12-2.56-7.68-2.56l-92.16-92.16c0-2.56-2.56-5.12-2.56-7.68s0-5.12 2.56-5.12l302.080-302.080-302.080-302.080c-2.56-2.56-2.56-10.24 0-12.8l92.16-92.16c2.56-2.56 10.24-2.56 12.8 0l302.080 302.080 302.080-302.080c2.56-2.56 10.24-2.56 12.8 0l92.16 92.16c2.56 5.12 2.56 10.24 0 12.8z" />
<glyph unicode="&#xe920;" glyph-name="close-thin" d="M875.886 34.743l-764.343 762.514c-7.314 9.143-9.143 14.629-7.314 16.457l29.257 29.257c3.657 3.657 10.971-1.829 16.457-7.314l764.343-764.343c7.314-7.314 9.143-12.8 7.314-16.457l-29.257-29.257c-3.657 0-10.971 3.657-16.457 9.143zM912.457 799.086l-762.514-764.343c-7.314-7.314-12.8-9.143-16.457-7.314l-29.257 29.257c-3.657 3.657 1.829 10.971 7.314 16.457l764.343 762.514c7.314 7.314 12.8 9.143 16.457 7.314l29.257-29.257c0-1.829-3.657-9.143-9.143-14.629z" />
<glyph unicode="&#xe921;" glyph-name="chevron-small-right" d="M563.2 460.8l-160.819 175.104c-13.722 13.824-13.722 36.198 0 50.074 13.722 13.824 35.891 13.824 49.613 0l196.096-200.090c13.722-13.875 13.722-36.301 0-50.125l-196.096-200.090c-13.67-13.926-35.891-13.824-49.613 0-13.722 13.773-13.722 36.198 0 50.074l160.819 175.053z" />
<glyph unicode="&#xe922;" glyph-name="home" d="M1024 352l-192 192v288h-128v-160l-192 192-512-512v-32h128v-320h320v192h128v-192h320v320h128z" />
<glyph unicode="&#xe923;" glyph-name="check" d="M995.84 719.36l-92.16 92.16c-5.12 5.12-12.8 5.12-17.92 0l-537.6-540.16-209.92 209.92c-5.12 5.12-12.8 5.12-17.92 0l-92.16-92.16c-5.12-5.12-5.12-12.8 0-17.92l320-320 647.68 650.24c5.12 5.12 5.12 12.8 0 17.92z" />
<glyph unicode="&#xe924;" glyph-name="file-empty" d="M917.806 730.924c-22.212 30.292-53.174 65.7-87.178 99.704s-69.412 64.964-99.704 87.178c-51.574 37.82-76.592 42.194-90.924 42.194h-496c-44.112 0-80-35.888-80-80v-864c0-44.112 35.888-80 80-80h736c44.112 0 80 35.888 80 80v624c0 14.332-4.372 39.35-42.194 90.924zM785.374 785.374c30.7-30.7 54.8-58.398 72.58-81.374h-153.954v153.946c22.984-17.78 50.678-41.878 81.374-72.572zM896 16c0-8.672-7.328-16-16-16h-736c-8.672 0-16 7.328-16 16v864c0 8.672 7.328 16 16 16 0 0 495.956 0.002 496 0v-224c0-17.672 14.326-32 32-32h224v-624z" />
<glyph unicode="&#xe925;" glyph-name="books" horiz-adv-x="1152" d="M224 832h-192c-17.6 0-32-14.4-32-32v-704c0-17.6 14.4-32 32-32h192c17.6 0 32 14.4 32 32v704c0 17.6-14.4 32-32 32zM192 640h-128v64h128v-64zM544 832h-192c-17.6 0-32-14.4-32-32v-704c0-17.6 14.4-32 32-32h192c17.6 0 32 14.4 32 32v704c0 17.6-14.4 32-32 32zM512 640h-128v64h128v-64zM765.088 782.52l-171.464-86.394c-15.716-7.918-22.096-27.258-14.178-42.976l287.978-571.548c7.918-15.718 27.258-22.098 42.976-14.178l171.464 86.392c15.716 7.92 22.096 27.26 14.178 42.974l-287.978 571.55c-7.92 15.718-27.26 22.1-42.976 14.18z" />
<glyph unicode="&#xe926;" glyph-name="file-text2" d="M917.806 730.924c-22.212 30.292-53.174 65.7-87.178 99.704s-69.412 64.964-99.704 87.178c-51.574 37.82-76.592 42.194-90.924 42.194h-496c-44.112 0-80-35.888-80-80v-864c0-44.112 35.888-80 80-80h736c44.112 0 80 35.888 80 80v624c0 14.332-4.372 39.35-42.194 90.924zM785.374 785.374c30.7-30.7 54.8-58.398 72.58-81.374h-153.954v153.946c22.984-17.78 50.678-41.878 81.374-72.572zM896 16c0-8.672-7.328-16-16-16h-736c-8.672 0-16 7.328-16 16v864c0 8.672 7.328 16 16 16 0 0 495.956 0.002 496 0v-224c0-17.672 14.326-32 32-32h224v-624zM736 128h-448c-17.672 0-32 14.326-32 32s14.328 32 32 32h448c17.674 0 32-14.326 32-32s-14.326-32-32-32zM736 256h-448c-17.672 0-32 14.326-32 32s14.328 32 32 32h448c17.674 0 32-14.326 32-32s-14.326-32-32-32zM736 384h-448c-17.672 0-32 14.326-32 32s14.328 32 32 32h448c17.674 0 32-14.326 32-32s-14.326-32-32-32z" />
<glyph unicode="&#xe927;" glyph-name="file-picture" d="M832 64h-640v128l192 320 263-320 185 128v-256zM832 480c0-53.020-42.98-96-96-96-53.022 0-96 42.98-96 96s42.978 96 96 96c53.020 0 96-42.98 96-96zM917.806 730.924c-22.212 30.292-53.174 65.7-87.178 99.704s-69.412 64.964-99.704 87.178c-51.574 37.82-76.592 42.194-90.924 42.194h-496c-44.112 0-80-35.888-80-80v-864c0-44.112 35.888-80 80-80h736c44.112 0 80 35.888 80 80v624c0 14.332-4.372 39.35-42.194 90.924zM785.374 785.374c30.7-30.7 54.8-58.398 72.58-81.374h-153.954v153.946c22.984-17.78 50.678-41.878 81.374-72.572zM896 16c0-8.672-7.328-16-16-16h-736c-8.672 0-16 7.328-16 16v864c0 8.672 7.328 16 16 16 0 0 495.956 0.002 496 0v-224c0-17.672 14.326-32 32-32h224v-624z" />
<glyph unicode="&#xe928;" glyph-name="file-music" d="M917.806 730.924c-22.21 30.292-53.174 65.7-87.178 99.704s-69.412 64.964-99.704 87.178c-51.574 37.82-76.592 42.194-90.924 42.194h-496c-44.112 0-80-35.888-80-80v-864c0-44.112 35.886-80 80-80h736c44.112 0 80 35.888 80 80v624c0 14.332-4.372 39.35-42.194 90.924v0zM785.374 785.374c30.7-30.7 54.8-58.398 72.58-81.374h-153.954v153.946c22.982-17.78 50.678-41.878 81.374-72.572v0zM896 16c0-8.672-7.328-16-16-16h-736c-8.672 0-16 7.328-16 16v864c0 8.672 7.328 16 16 16 0 0 495.956 0.002 496 0v-224c0-17.672 14.324-32 32-32h224v-624zM756.288 568.748c-7.414 6.080-17.164 8.514-26.562 6.632l-320-64c-14.958-2.994-25.726-16.126-25.726-31.38v-236.876c-18.832 8.174-40.678 12.876-64 12.876-70.692 0-128-42.98-128-96s57.308-96 128-96 128 42.98 128 96v229.766l256 51.202v-133.842c-18.832 8.174-40.678 12.876-64 12.876-70.692 0-128-42.98-128-96s57.308-96 128-96 128 42.98 128 96v319.998c0 9.586-4.298 18.668-11.712 24.748z" />
<glyph unicode="&#xe929;" glyph-name="quill" d="M58.88 0c122.88 353.28 424.96 901.12 919.040 901.12-240.64-192-348.16-640-524.8-640s-174.080 0-174.080 0l-161.28-268.8c-7.68-15.36-23.040-23.040-35.84-23.040v0c-17.92 0-30.72 17.92-23.040 30.72z" />
<glyph unicode="&#xe92a;" glyph-name="file-video" d="M917.806 730.924c-22.208 30.292-53.174 65.7-87.178 99.704s-69.412 64.964-99.704 87.178c-51.574 37.82-76.594 42.194-90.924 42.194h-496c-44.112 0-80-35.888-80-80v-864c0-44.112 35.882-80 80-80h736c44.112 0 80 35.888 80 80v624c0 14.332-4.372 39.35-42.194 90.924v0 0zM785.374 785.374c30.7-30.7 54.8-58.398 72.58-81.374h-153.954v153.946c22.98-17.78 50.678-41.878 81.374-72.572v0 0zM896 16c0-8.672-7.328-16-16-16h-736c-8.672 0-16 7.328-16 16v864c0 8.672 7.328 16 16 16 0 0 495.956 0.002 496 0v-224c0-17.672 14.32-32 32-32h224v-624zM256 448h320v-320h-320v320zM576 320l192 128v-320l-192 128z" />
<glyph unicode="&#xe92b;" glyph-name="file-zip" d="M917.806 730.924c-22.208 30.292-53.174 65.7-87.178 99.704s-69.412 64.964-99.704 87.178c-51.574 37.82-76.592 42.194-90.924 42.194h-496c-44.112 0-80-35.888-80-80v-864c0-44.112 35.884-80 80-80h736c44.112 0 80 35.888 80 80v624c0 14.332-4.372 39.35-42.194 90.924v0 0zM785.374 785.374c30.7-30.7 54.8-58.398 72.58-81.374h-153.954v153.946c22.98-17.78 50.678-41.878 81.374-72.572v0 0zM896 16c0-8.672-7.328-16-16-16h-736c-8.672 0-16 7.328-16 16v864c0 8.672 7.328 16 16 16 0 0 495.956 0.002 496 0v-224c0-17.672 14.322-32 32-32h224v-624zM256 896h128v-64h-128v64zM384 832h128v-64h-128v64zM256 768h128v-64h-128v64zM384 704h128v-64h-128v64zM256 640h128v-64h-128v64zM384 576h128v-64h-128v64zM256 512h128v-64h-128v64zM384 448h128v-64h-128v64zM256 112c0-26.4 21.6-48 48-48h160c26.4 0 48 21.6 48 48v160c0 26.4-21.6 48-48 48h-80v64h-128v-272zM448 192v-64h-128v64h128z" />
<glyph unicode="&#xe92c;" glyph-name="mail" d="M524.8 348.16l448 337.92v35.84c0 38.4-33.28 71.68-71.68 71.68h-773.12c-43.52 0-76.8-33.28-76.8-76.8v-30.72l448-335.36c5.12-5.12 20.48-5.12 25.6-2.56zM570.88 286.72c-15.36-12.8-35.84-17.92-58.88-17.92-20.48 0-43.52 7.68-58.88 17.92l-401.92 327.68v-435.2c0-56.32 46.080-102.4 102.4-102.4h716.8c56.32 0 102.4 46.080 102.4 102.4v435.2l-401.92-327.68z" />
<glyph unicode="&#xe92d;" glyph-name="modified" d="M576 499.2v230.4c0 7.168-5.632 12.8-12.8 12.8h-76.8c-6.912 0-12.8-5.632-12.8-12.8v-332.8c0-6.912 5.632-12.8 12.8-12.8h281.6c6.912 0 12.8 5.632 12.8 12.8v76.8c0 6.912-5.632 12.8-12.8 12.8h-179.2c-7.168 0-12.8 5.632-12.8 12.8zM1002.496 526.336c-0.256 1.024-0.256 1.792-0.512 2.816-2.304 11.776-5.376 23.296-8.448 34.816-1.024 4.096-2.048 8.192-3.072 12.288-2.816 8.96-6.144 17.92-9.216 26.624-2.304 6.4-4.352 12.8-7.168 19.2-2.56 6.4-5.632 12.288-8.704 18.688-3.84 8.448-7.68 17.152-12.288 25.344-2.048 3.584-4.352 7.168-6.4 10.752-5.888 10.24-12.032 20.736-18.688 30.72-0.512 0.768-1.024 1.536-1.536 2.304-16.896 24.576-35.84 48.384-57.856 70.144s-45.568 40.96-70.144 57.856c-0.768 0.512-1.536 1.024-2.304 1.536-9.984 6.656-20.224 12.8-30.72 18.688-3.584 2.048-7.168 4.352-10.752 6.4-8.448 4.352-16.896 8.448-25.344 12.288-6.144 2.816-12.288 5.888-18.688 8.704-6.4 2.56-12.8 4.608-19.2 7.168-8.704 3.328-17.664 6.656-26.624 9.216-4.096 1.28-8.192 2.048-12.288 3.072-11.52 3.072-23.040 6.144-34.816 8.448-1.024 0.256-1.792 0.256-2.816 0.512-29.44 5.632-59.392 8.704-90.368 8.704s-60.928-3.328-90.368-8.704c-1.024-0.256-1.792-0.256-2.816-0.512-11.776-2.304-23.296-5.376-34.816-8.448-4.096-1.024-8.192-2.048-12.288-3.072-8.96-2.816-17.92-6.144-26.624-9.216-6.4-2.304-12.8-4.352-19.2-7.168-6.4-2.56-12.288-5.632-18.688-8.704-8.448-3.84-17.152-7.68-25.344-12.288-3.584-2.048-7.168-4.352-10.752-6.4-10.24-5.888-20.736-12.032-30.72-18.688-0.512-0.512-1.024-1.024-1.792-1.792-24.576-16.896-48.384-35.84-70.144-57.856s-40.96-45.568-57.856-70.144c-0.512-0.512-1.28-1.28-1.792-2.048-6.656-9.984-12.8-20.224-18.688-30.72-2.048-3.584-4.352-7.168-6.4-10.752-4.352-8.448-8.448-16.896-12.288-25.344-2.816-6.144-5.888-12.288-8.704-18.688-2.56-6.4-4.608-12.8-7.168-19.2-3.328-8.704-6.656-17.664-9.216-26.624-1.28-4.096-2.048-8.192-3.072-12.288-3.072-11.52-6.144-23.040-8.448-34.816-0.256-1.024-0.256-1.792-0.512-2.816-5.632-29.44-8.704-59.392-8.704-90.368h0.256c0-50.944 8.448-101.888 24.32-150.784l-59.648-22.272 152.32-80.128 29.696 75.008 33.792 85.248-60.16-22.272c-18.944 60.416-22.784 124.672-11.264 186.624 0.256 0.768 0.256 1.536 0.256 2.304 1.792 9.216 4.096 18.432 6.656 27.392 0.768 3.328 1.536 6.4 2.56 9.728 2.048 7.168 4.864 14.080 7.424 20.992 1.792 5.12 3.584 10.24 5.632 15.36 2.048 4.864 4.608 9.728 6.656 14.592 3.072 6.656 6.144 13.568 9.728 20.224 1.536 2.816 3.328 5.632 4.864 8.448 4.608 8.192 9.472 16.384 14.848 24.32 0.512 0.512 1.024 1.28 1.28 1.792 27.136 39.68 61.44 73.984 100.864 100.864 0.512 0.512 1.28 0.768 1.792 1.28 7.936 5.376 16.128 9.984 24.32 14.848 2.816 1.536 5.632 3.328 8.448 4.864 6.656 3.584 13.568 6.656 20.224 9.728 4.864 2.304 9.472 4.608 14.592 6.656s10.24 3.84 15.36 5.632c6.912 2.56 13.824 5.12 20.736 7.168 3.328 1.024 6.656 1.536 9.984 2.56 8.96 2.56 18.176 4.864 27.136 6.656 1.024 0.256 1.792 0.256 2.816 0.512 46.848 8.704 94.976 8.704 141.824 0 0.768-0.256 1.792-0.256 2.56-0.512 9.216-1.792 18.176-4.096 27.392-6.656 3.328-0.768 6.656-1.536 9.728-2.56 7.168-2.048 14.080-4.864 20.992-7.424 5.12-1.792 10.24-3.584 15.36-5.632 4.864-2.048 9.728-4.608 14.592-6.912 6.656-3.072 13.568-6.144 19.968-9.728 2.816-1.536 5.632-3.328 8.448-5.12 8.192-4.608 16.384-9.472 24.064-14.592 0.768-0.512 1.28-1.024 2.048-1.536 39.424-27.136 73.472-61.184 100.608-100.608 0.512-0.768 1.024-1.28 1.536-2.048 5.376-7.68 9.984-15.872 14.592-24.064 1.536-2.816 3.584-5.632 5.12-8.448 3.584-6.4 6.656-13.312 9.728-19.968 2.304-4.864 4.864-9.728 6.912-14.592s3.84-10.24 5.632-15.104c2.56-6.912 5.12-13.824 7.424-20.992 1.024-3.328 1.536-6.656 2.56-9.728 2.56-8.96 4.864-18.176 6.656-27.392 0.256-0.768 0.256-1.792 0.512-2.816 8.704-46.848 8.704-94.976 0-141.824-0.256-1.024-0.256-1.792-0.512-2.816-1.792-9.216-4.096-18.176-6.656-27.392-0.768-3.328-1.536-6.656-2.56-9.728-2.048-7.168-4.864-14.080-7.424-20.992-1.792-5.12-3.584-10.24-5.632-15.36-2.048-4.864-4.608-9.728-6.912-14.592-3.072-6.656-6.144-13.568-9.728-19.968-1.536-2.816-3.328-5.632-5.12-8.704-4.608-8.192-9.472-16.384-14.592-24.064-0.512-0.768-1.024-1.28-1.536-2.048-69.12-101.12-185.344-167.68-316.928-167.68v-102.4c134.144 0 255.744 54.528 343.808 142.592l0.256-0.256c21.76 21.76 40.96 45.568 57.856 70.144 0.512 0.768 1.024 1.536 1.536 2.304 6.656 9.984 12.8 20.224 18.688 30.72 2.048 3.584 4.352 7.168 6.4 10.752 4.352 8.448 8.448 16.896 12.288 25.344 2.816 6.144 5.888 12.288 8.704 18.688 2.56 6.4 4.608 12.8 7.168 19.2 3.328 8.704 6.656 17.664 9.216 26.624 1.28 4.096 2.048 8.192 3.072 12.288 3.072 11.52 6.144 23.040 8.448 34.816 0.256 1.024 0.256 1.792 0.512 2.816 5.632 29.44 8.704 59.392 8.704 90.368s-3.072 61.44-8.448 90.624z" />
<glyph unicode="&#xe92e;" glyph-name="search" d="M968.704 56.064l-305.408 287.232c45.568 58.112 72.96 131.328 72.96 210.688 0 188.928-153.6 342.528-342.528 342.528s-342.528-153.6-342.528-342.528 153.6-342.528 342.528-342.528c78.848 0 151.552 27.136 209.664 72.192l287.232-305.664c5.376-5.376 33.792-5.376 39.168 0l38.912 38.912c5.376 5.376 5.376 33.792 0 39.168zM393.728 294.144c-143.104 0-259.84 116.48-259.84 259.84s116.736 259.584 259.84 259.584 259.84-116.48 259.84-259.84-116.48-259.584-259.84-259.584z" />
<glyph unicode="&#xe92f;" glyph-name="folder" d="M448 832l128-128h448v-704h-1024v832z" />
<glyph unicode="&#xe930;" glyph-name="more_arrow" d="M972.8 413.952l-144.896 144.896-36.096-36.352 108.544-108.544h-849.152v-51.2h921.6v51.2z" />
<glyph unicode="&#xe931;" glyph-name="posted" d="M512-51.2c-268.288 0-486.4 218.112-486.4 486.4s218.112 486.4 486.4 486.4 486.4-218.112 486.4-486.4-218.112-486.4-486.4-486.4zM512 819.2c-211.712 0-384-172.288-384-384s172.288-384 384-384c211.712 0 384 172.288 384 384s-172.288 384-384 384zM563.2 499.2v230.4c0 7.168-5.632 12.8-12.8 12.8h-76.8c-7.168 0-12.8-5.632-12.8-12.8v-332.8c0-6.912 5.632-12.8 12.8-12.8h281.6c6.912 0 12.8 5.632 12.8 12.8v76.8c0 6.912-5.632 12.8-12.8 12.8h-179.2c-7.168 0-12.8 5.632-12.8 12.8z" />
<glyph unicode="&#xe932;" glyph-name="lock-closed" d="M204.8 563.2v102.4c0 169.662 137.538 307.2 307.2 307.2s307.2-137.538 307.2-307.2v0-102.4h51.2c56.554 0 102.4-45.846 102.4-102.4v0-409.6c0-56.554-45.846-102.4-102.4-102.4v0h-716.8c-56.554 0-102.4 45.846-102.4 102.4v0 409.6c0 56.32 46.080 102.4 102.4 102.4h51.2zM460.8 218.624v-116.224h102.4v116.224c30.824 18.035 51.2 50.978 51.2 88.681 0 56.554-45.846 102.4-102.4 102.4s-102.4-45.846-102.4-102.4c0-37.703 20.376-70.646 50.717-88.419l0.483-0.262zM358.4 665.6v-102.4h307.2v102.4c0 84.831-68.769 153.6-153.6 153.6s-153.6-68.769-153.6-153.6v0z" />
<glyph unicode="&#xe933;" glyph-name="lock-open" d="M204.8 563.2v102.4c0 169.662 137.538 307.2 307.2 307.2s307.2-137.538 307.2-307.2v0h-153.6v-102.4h204.8c56.554 0 102.4-45.846 102.4-102.4v0-409.6c0-56.554-45.846-102.4-102.4-102.4v0h-716.8c-56.554 0-102.4 45.846-102.4 102.4v0 409.6c0 56.32 46.080 102.4 102.4 102.4h51.2zM460.8 218.624v-116.224h102.4v116.224c30.824 18.035 51.2 50.978 51.2 88.681 0 56.554-45.846 102.4-102.4 102.4s-102.4-45.846-102.4-102.4c0-37.703 20.376-70.646 50.717-88.419l0.483-0.262zM358.4 665.6v-102.4h307.2v102.4c0 84.831-68.769 153.6-153.6 153.6s-153.6-68.769-153.6-153.6v0z" />
<glyph unicode="&#xe934;" glyph-name="pen" d="M942.080-10.24v0c0-15.36-10.24-25.6-25.6-25.6h-460.8c-15.36 0-25.6 10.24-25.6 25.6v0c0 15.36 10.24 25.6 25.6 25.6h460.8c15.36 0 25.6-10.24 25.6-25.6zM665.6 698.88l-209.92 122.88 43.52 74.24c12.8 20.48 66.56 10.24 125.44-23.040s94.72-79.36 81.92-99.84l-40.96-74.24zM642.56 660.48l-322.56-560.64-25.6-43.52c-2.56-5.12-5.12-7.68-10.24-10.24l-104.96-51.2-56.32-28.16c-7.68-2.56-12.8-2.56-20.48-2.56-2.56 2.56-5.12 5.12-7.68 7.68 0 2.56-2.56 7.68-2.56 10.24v17.92l-2.56 46.080-2.56 28.16-7.68 89.6c0 5.12 0 7.68 2.56 12.8v0 2.56l25.6 43.52 327.68 558.080 207.36-120.32zM268.8 76.8l17.92 25.6c-12.8 17.92-33.28 33.28-58.88 51.2l-25.6 12.8c-25.6 12.8-51.2 23.040-71.68 25.6l-15.36-25.6 2.56-66.56c15.36-7.68 30.72-12.8 46.080-23.040 15.36-7.68 28.16-17.92 40.96-28.16l64 28.16z" />
<glyph unicode="&#xe935;" glyph-name="price-tag" d="M976 960h-384c-26.4 0-63.274-15.274-81.942-33.942l-476.116-476.116c-18.668-18.668-18.668-49.214 0-67.882l412.118-412.118c18.668-18.668 49.214-18.668 67.882 0l476.118 476.118c18.666 18.666 33.94 55.54 33.94 81.94v384c0 26.4-21.6 48-48 48zM736 576c-53.020 0-96 42.98-96 96s42.98 96 96 96 96-42.98 96-96-42.98-96-96-96z" />
<glyph unicode="&#xe936;" glyph-name="swell" d="M161.28 547.84c0-29.691-24.069-53.76-53.76-53.76s-53.76 24.069-53.76 53.76c0 29.691 24.069 53.76 53.76 53.76s53.76-24.069 53.76-53.76zM939.52 650.24c-25.6 56.32-94.72 99.84-176.64 84.48-92.16-17.92-138.24-74.24-199.68-151.040-69.12-87.040-140.8-179.2-240.64-217.6-35.84-15.36-71.68-20.48-110.080-20.48-28.16 0-58.88 5.12-89.6 12.8-17.92 5.12-38.4 12.8-58.88 20.48 51.2-202.24 235.52-353.28 455.68-348.16 250.88 5.12 453.12 212.48 453.12 460.8-2.56 53.76-10.24 110.080-33.28 158.72z" />
<glyph unicode="&#xe937;" glyph-name="image" d="M959.884 832c0.040-0.034 0.082-0.076 0.116-0.116v-767.77c-0.034-0.040-0.076-0.082-0.116-0.116h-895.77c-0.040 0.034-0.082 0.076-0.114 0.116v767.772c0.034 0.040 0.076 0.082 0.114 0.114h895.77zM960 896h-896c-35.2 0-64-28.8-64-64v-768c0-35.2 28.8-64 64-64h896c35.2 0 64 28.8 64 64v768c0 35.2-28.8 64-64 64v0zM832 672c0-53.020-42.98-96-96-96s-96 42.98-96 96 42.98 96 96 96 96-42.98 96-96zM896 128h-768v128l224 384 256-320h64l224 192z" />
<glyph unicode="&#xe938;" glyph-name="headphones" d="M288 384h-64v-448h64c17.6 0 32 14.4 32 32v384c0 17.6-14.4 32-32 32zM736 384c-17.602 0-32-14.4-32-32v-384c0-17.6 14.398-32 32-32h64v448h-64zM1024 448c0 282.77-229.23 512-512 512s-512-229.23-512-512c0-61.412 10.83-120.29 30.656-174.848-19.478-33.206-30.656-71.87-30.656-113.152 0-112.846 83.448-206.188 192-221.716v443.418c-31.914-4.566-61.664-15.842-87.754-32.378-5.392 26.718-8.246 54.364-8.246 82.676 0 229.75 186.25 416 416 416s416-186.25 416-416c0-28.314-2.83-55.968-8.22-82.696-26.1 16.546-55.854 27.848-87.78 32.418v-443.44c108.548 15.532 192 108.874 192 221.714 0 41.274-11.178 79.934-30.648 113.138 19.828 54.566 30.648 113.452 30.648 174.866z" />
<glyph unicode="&#xe939;" glyph-name="cart" d="M898.56 353.28l43.52 309.76c2.56 15.36-10.24 28.16-25.6 28.16h-665.6l-17.92 130.56c0 12.8-12.8 23.040-25.6 23.040h-156.16c-15.36 0-25.6-10.24-25.6-25.6v-51.2c0-15.36 10.24-25.6 25.6-25.6h69.12c12.8 0 23.040-10.24 25.6-23.040l81.92-570.88c2.56-12.8 12.8-23.040 25.6-23.040h616.96c15.36 0 25.6 10.24 25.6 25.6v51.2c0 15.36-10.24 25.6-25.6 25.6h-529.92c-12.8 0-23.040 10.24-25.6 23.040l-5.12 33.28 565.76 46.080c12.8 2.56 20.48 10.24 23.040 23.040zM384 25.6c0-42.415-34.385-76.8-76.8-76.8s-76.8 34.385-76.8 76.8c0 42.415 34.385 76.8 76.8 76.8s76.8-34.385 76.8-76.8zM844.8 25.6c0-42.415-34.385-76.8-76.8-76.8s-76.8 34.385-76.8 76.8c0 42.415 34.385 76.8 76.8 76.8s76.8-34.385 76.8-76.8z" />
<glyph unicode="&#xe93a;" glyph-name="film" d="M0 832v-768h1024v768h-1024zM192 128h-128v128h128v-128zM192 384h-128v128h128v-128zM192 640h-128v128h128v-128zM768 128h-512v640h512v-640zM960 128h-128v128h128v-128zM960 384h-128v128h128v-128zM960 640h-128v128h128v-128zM384 640v-384l256 192z" />
<glyph unicode="&#xe93b;" glyph-name="clipboard-copy" d="M460.8 312.32l194.56-179.2v102.4h307.2v153.6h-307.2v102.4zM798.72 209.92v-166.4c0-10.24-7.68-17.92-17.92-17.92h-537.6c-10.24 0-17.92 7.68-17.92 17.92v583.68c0 10.24 7.68 17.92 17.92 17.92h540.16c10.24 0 17.92-7.68 17.92-17.92v-212.48h76.8v294.4c0 51.2-40.96 92.16-92.16 92.16h-151.040c0 66.56-56.32 120.32-122.88 120.32s-122.88-53.76-122.88-122.88h-151.040c-51.2 0-92.16-40.96-92.16-92.16v-668.16c0-51.2 40.96-92.16 92.16-92.16h547.84c51.2 0 92.16 40.96 92.16 92.16v168.96h-79.36zM512 844.8c25.6 0 46.080-20.48 46.080-46.080s-20.48-43.52-46.080-43.52-46.080 20.48-46.080 46.080 20.48 43.52 46.080 43.52z" />
<glyph unicode="&#xe93c;" glyph-name="clipboard-copyed" d="M739.84 448l-48.64 48.64c-2.56 2.56-7.68 2.56-10.24 0l-245.76-248.32-92.16 92.16c-2.56 2.56-7.68 2.56-10.24 0l-48.64-48.64c-2.56-2.56-2.56-7.68 0-10.24l145.92-145.92c2.56-2.56 7.68-2.56 10.24 0l302.080 302.080c0 2.56 0 7.68-2.56 10.24zM875.52 709.12v-668.16c0-51.2-40.96-92.16-92.16-92.16h-545.28c-51.2 0-92.16 40.96-92.16 92.16v668.16c0 51.2 40.96 92.16 92.16 92.16h151.040c0 66.56 56.32 120.32 122.88 120.32s122.88-53.76 122.88-122.88h151.040c51.2 0 89.6-38.4 89.6-89.6zM512 844.8c-25.6 0-46.080-20.48-46.080-46.080s20.48-43.52 46.080-43.52 46.080 20.48 46.080 46.080-20.48 43.52-46.080 43.52zM798.72 43.52v583.68c0 10.24-7.68 17.92-17.92 17.92h-537.6c-10.24 0-17.92-7.68-17.92-17.92v-583.68c0-10.24 7.68-17.92 17.92-17.92h540.16c7.68 0 15.36 7.68 15.36 17.92z" />
<glyph unicode="&#xe93d;" glyph-name="room" d="M963.2 64l-774.4-108.8-128 108.8h902.4zM336 144h-147.2v771.2h243.2c147.2 0 265.6-118.4 265.6-265.6 0-89.6-44.8-169.6-112-217.6l217.6-288h-182.4l-179.2 240h-102.4v-240zM336 531.2h96c67.2 0 118.4 54.4 118.4 118.4 0 67.2-54.4 118.4-118.4 118.4h-96c0 0 0-236.8 0-236.8z" />
<glyph unicode="&#xe93e;" glyph-name="tiktok" d="M534.4 946.347c55.893 0.853 111.36 0.427 166.827 0.853 3.413-65.28 26.88-131.84 74.667-177.92 47.787-47.36 115.2-69.12 180.907-76.373v-171.947c-61.44 2.133-123.307 14.933-179.2 41.387-24.32 11.093-46.933 25.173-69.12 39.68-0.427-124.587 0.427-249.173-0.853-373.333-3.413-59.733-23.040-119.040-57.6-168.107-55.893-81.92-152.747-135.253-252.16-136.96-61.013-3.413-122.027 13.227-174.080 43.947-86.187 50.773-146.773 143.787-155.733 243.627-0.853 21.333-1.28 42.667-0.427 63.573 7.68 81.067 47.787 158.72 110.080 211.627 70.827 61.44 169.813 90.88 262.4 73.387 0.853-63.147-1.707-126.293-1.707-189.44-42.24 13.653-91.733 9.813-128.853-15.787-26.88-17.493-47.36-44.373-58.027-74.667-8.96-21.76-6.4-45.653-5.973-68.693 10.24-69.973 77.653-128.853 149.333-122.453 47.787 0.427 93.44 28.16 118.187 68.693 8.107 14.080 17.067 28.587 17.493 45.227 4.267 76.373 2.56 152.32 2.987 228.693 0.427 171.947-0.427 343.467 0.853 514.987z" />
<glyph unicode="&#xe93f;" glyph-name="triangle" d="M962.56 33.28h-901.12c-20.48 0-33.28 20.48-23.040 38.4l450.56 778.24c10.24 17.92 33.28 17.92 43.52 0l450.56-780.8c10.24-15.36 0-35.84-20.48-35.84zM238.080 161.28h545.28l-271.36 471.040-273.92-471.040z" />
<glyph unicode="&#xe942;" glyph-name="phone" d="M279.040 488.96c69.12-117.76 166.4-217.6 286.72-286.72 20.48-12.8 43.52-10.24 61.44 7.68l64 64c15.36 15.36 35.84 20.48 53.76 12.8 58.88-20.48 117.76-28.16 181.76-28.16 28.16 0 51.2-23.040 51.2-51.2v-179.2c0-28.16-23.040-51.2-51.2-51.2-483.84-2.56-875.52 389.12-875.52 867.84 0 28.16 23.040 51.2 51.2 51.2h179.2c28.16 0 51.2-23.040 51.2-51.2 0-66.56 10.24-122.88 28.16-181.76 5.12-17.92 2.56-38.4-12.8-53.76l-64-64c-15.36-12.8-17.92-38.4-5.12-56.32z" />
<glyph unicode="&#xe96b;" glyph-name="bubble" d="M512 896c282.77 0 512-186.25 512-416 0-229.752-229.23-416-512-416-27.156 0-53.81 1.734-79.824 5.044-109.978-109.978-241.25-129.7-368.176-132.596v26.916c68.536 33.578 128 94.74 128 164.636 0 9.754-0.758 19.33-2.164 28.696-115.796 76.264-189.836 192.754-189.836 323.304 0 229.75 229.23 416 512 416z" />
<glyph unicode="&#xe970;" glyph-name="bubbles" horiz-adv-x="1152" d="M480 832c-50.666 0-99.582-7.95-145.386-23.628-42.924-14.694-81.114-35.436-113.502-61.646-60.044-48.59-93.112-110.802-93.112-175.174 0-35.99 10.066-70.948 29.92-103.898 20.686-34.34 51.898-65.794 90.26-90.958 30.44-19.968 50.936-51.952 56.362-87.95 0.902-5.99 1.63-12.006 2.18-18.032 2.722 2.52 5.424 5.114 8.114 7.794 24.138 24.040 56.688 37.312 90.322 37.312 5.348 0 10.718-0.336 16.094-1.018 19.36-2.452 39.124-3.696 58.748-3.696 50.666 0 99.58 7.948 145.384 23.628 42.926 14.692 81.116 35.434 113.504 61.644 60.046 48.59 93.112 110.802 93.112 175.174s-33.066 126.582-93.112 175.174c-32.388 26.212-70.578 46.952-113.504 61.646-45.804 15.678-94.718 23.628-145.384 23.628zM480 960v0c265.096 0 480-173.914 480-388.448s-214.904-388.448-480-388.448c-25.458 0-50.446 1.62-74.834 4.71-103.106-102.694-222.172-121.108-341.166-123.814v25.134c64.252 31.354 116 88.466 116 153.734 0 9.106-0.712 18.048-2.030 26.794-108.558 71.214-177.97 179.988-177.97 301.89 0 214.534 214.904 388.448 480 388.448zM996 89.314c0-55.942 36.314-104.898 92-131.772v-21.542c-103.126 2.318-197.786 18.102-287.142 106.126-21.14-2.65-42.794-4.040-64.858-4.040-95.47 0-183.408 25.758-253.614 69.040 144.674 0.506 281.26 46.854 384.834 130.672 52.208 42.252 93.394 91.826 122.414 147.348 30.766 58.866 46.366 121.582 46.366 186.406 0 10.448-0.45 20.836-1.258 31.168 72.57-59.934 117.258-141.622 117.258-231.676 0-104.488-60.158-197.722-154.24-258.764-1.142-7.496-1.76-15.16-1.76-22.966z" />
<glyph unicode="&#xe977;" glyph-name="quotes-left" d="M225 512c123.712 0 224-100.29 224-224 0-123.712-100.288-224-224-224s-224 100.288-224 224l-1 32c0 247.424 200.576 448 448 448v-128c-85.474 0-165.834-33.286-226.274-93.726-11.634-11.636-22.252-24.016-31.83-37.020 11.438 1.8 23.16 2.746 35.104 2.746zM801 512c123.71 0 224-100.29 224-224 0-123.712-100.29-224-224-224s-224 100.288-224 224l-1 32c0 247.424 200.576 448 448 448v-128c-85.474 0-165.834-33.286-226.274-93.726-11.636-11.636-22.254-24.016-31.832-37.020 11.44 1.8 23.16 2.746 35.106 2.746z" />
<glyph unicode="&#xe978;" glyph-name="quotes-right" d="M800 320c-123.712 0-224 100.29-224 224 0 123.712 100.288 224 224 224s224-100.288 224-224l1-32c0-247.424-200.576-448-448-448v128c85.474 0 165.834 33.286 226.274 93.726 11.634 11.636 22.252 24.016 31.83 37.020-11.438-1.8-23.16-2.746-35.104-2.746zM224 320c-123.71 0-224 100.29-224 224 0 123.712 100.29 224 224 224s224-100.288 224-224l1-32c0-247.424-200.576-448-448-448v128c85.474 0 165.834 33.286 226.274 93.726 11.636 11.636 22.254 24.016 31.832 37.020-11.44-1.8-23.16-2.746-35.106-2.746z" />
<glyph unicode="&#xe9c5;" glyph-name="link" d="M440.236 324.234c-13.31 0-26.616 5.076-36.77 15.23-95.134 95.136-95.134 249.934 0 345.070l192 192c46.088 46.086 107.36 71.466 172.534 71.466s126.448-25.38 172.536-71.464c95.132-95.136 95.132-249.934 0-345.070l-87.766-87.766c-20.308-20.308-53.23-20.308-73.54 0-20.306 20.306-20.306 53.232 0 73.54l87.766 87.766c54.584 54.586 54.584 143.404 0 197.99-26.442 26.442-61.6 41.004-98.996 41.004s-72.552-14.562-98.996-41.006l-192-191.998c-54.586-54.586-54.586-143.406 0-197.992 20.308-20.306 20.306-53.232 0-73.54-10.15-10.152-23.462-15.23-36.768-15.23zM256-52c-65.176 0-126.45 25.38-172.534 71.464-95.134 95.136-95.134 249.934 0 345.070l87.764 87.764c20.308 20.306 53.234 20.306 73.54 0 20.308-20.306 20.308-53.232 0-73.54l-87.764-87.764c-54.586-54.586-54.586-143.406 0-197.992 26.44-26.44 61.598-41.002 98.994-41.002s72.552 14.562 98.998 41.006l192 191.998c54.584 54.586 54.584 143.406 0 197.992-20.308 20.308-20.306 53.232 0 73.54 20.306 20.306 53.232 20.306 73.54-0.002 95.132-95.134 95.132-249.932 0.002-345.068l-192.002-192c-46.090-46.088-107.364-71.466-172.538-71.466z" />
<glyph unicode="&#xe9cd;" glyph-name="attachment" d="M665.832 632.952l-64.952 64.922-324.81-324.742c-53.814-53.792-53.814-141.048 0-194.844 53.804-53.792 141.060-53.792 194.874 0l389.772 389.708c89.714 89.662 89.714 235.062 0 324.726-89.666 89.704-235.112 89.704-324.782 0l-409.23-409.178c-0.29-0.304-0.612-0.576-0.876-0.846-125.102-125.096-125.102-327.856 0-452.906 125.054-125.056 327.868-125.056 452.988 0 0.274 0.274 0.516 0.568 0.82 0.876l0.032-0.034 279.332 279.292-64.986 64.92-279.33-279.262c-0.296-0.268-0.564-0.57-0.846-0.844-89.074-89.058-233.98-89.058-323.076 0-89.062 89.042-89.062 233.922 0 322.978 0.304 0.304 0.604 0.582 0.888 0.846l-0.046 0.060 409.28 409.166c53.712 53.738 141.144 53.738 194.886 0 53.712-53.734 53.712-141.148 0-194.84l-389.772-389.7c-17.936-17.922-47.054-17.922-64.972 0-17.894 17.886-17.894 47.032 0 64.92l324.806 324.782z" />
<glyph unicode="&#xe9ce;" glyph-name="eye" d="M512 768c-223.318 0-416.882-130.042-512-320 95.118-189.958 288.682-320 512-320 223.312 0 416.876 130.042 512 320-95.116 189.958-288.688 320-512 320zM764.45 598.296c60.162-38.374 111.142-89.774 149.434-150.296-38.292-60.522-89.274-111.922-149.436-150.296-75.594-48.218-162.89-73.704-252.448-73.704-89.56 0-176.858 25.486-252.452 73.704-60.158 38.372-111.138 89.772-149.432 150.296 38.292 60.524 89.274 111.924 149.434 150.296 3.918 2.5 7.876 4.922 11.86 7.3-9.96-27.328-15.41-56.822-15.41-87.596 0-141.382 114.616-256 256-256 141.382 0 256 114.618 256 256 0 30.774-5.452 60.268-15.408 87.598 3.978-2.378 7.938-4.802 11.858-7.302v0zM512 544c0-53.020-42.98-96-96-96s-96 42.98-96 96 42.98 96 96 96 96-42.982 96-96z" />
<glyph unicode="&#xe9d3;" glyph-name="bookmarks" d="M256 832v-896l320 320 320-320v896zM768 960h-640v-896l64 64v768h576z" />
<glyph unicode="&#xe9d7;" glyph-name="star-empty" d="M1024 562.95l-353.78 51.408-158.22 320.582-158.216-320.582-353.784-51.408 256-249.538-60.432-352.352 316.432 166.358 316.432-166.358-60.434 352.352 256.002 249.538zM512 206.502l-223.462-117.48 42.676 248.83-180.786 176.222 249.84 36.304 111.732 226.396 111.736-226.396 249.836-36.304-180.788-176.222 42.678-248.83-223.462 117.48z" />
<glyph unicode="&#xe9d8;" glyph-name="star-half" d="M1024 562.95l-353.78 51.408-158.22 320.582-158.216-320.582-353.784-51.408 256-249.538-60.432-352.352 316.432 166.358 316.432-166.358-60.434 352.352 256.002 249.538zM512 206.502l-0.942-0.496 0.942 570.768 111.736-226.396 249.836-36.304-180.788-176.222 42.678-248.83-223.462 117.48z" />
<glyph unicode="&#xe9d9;" glyph-name="star-full" d="M1024 562.95l-353.78 51.408-158.22 320.582-158.216-320.582-353.784-51.408 256-249.538-60.432-352.352 316.432 166.358 316.432-166.358-60.434 352.352 256.002 249.538z" />
<glyph unicode="&#xe9da;" glyph-name="heart" d="M755.188 896c-107.63 0-200.258-87.554-243.164-179-42.938 91.444-135.578 179-243.216 179-148.382 0-268.808-120.44-268.808-268.832 0-301.846 304.5-380.994 512.022-679.418 196.154 296.576 511.978 387.206 511.978 679.418 0 148.392-120.43 268.832-268.812 268.832z" />
<glyph unicode="&#xea0e;" glyph-name="blocked" d="M874.040 810.040c-96.706 96.702-225.28 149.96-362.040 149.96s-265.334-53.258-362.040-149.96c-96.702-96.706-149.96-225.28-149.96-362.040s53.258-265.334 149.96-362.040c96.706-96.702 225.28-149.96 362.040-149.96s265.334 53.258 362.040 149.96c96.702 96.706 149.96 225.28 149.96 362.040s-53.258 265.334-149.96 362.040zM896 448c0-82.814-26.354-159.588-71.112-222.38l-535.266 535.268c62.792 44.758 139.564 71.112 222.378 71.112 211.738 0 384-172.262 384-384zM128 448c0 82.814 26.354 159.586 71.112 222.378l535.27-535.268c-62.794-44.756-139.568-71.11-222.382-71.11-211.738 0-384 172.262-384 384z" />
<glyph unicode="&#xea56;" glyph-name="circle" d="M512 921.6c-268.8 0-486.4-217.6-486.4-486.4s217.6-486.4 486.4-486.4c268.8 0 486.4 217.6 486.4 486.4s-217.6 486.4-486.4 486.4zM512 81.92c-194.56 0-353.28 158.72-353.28 353.28s158.72 353.28 353.28 353.28c194.56 0 353.28-158.72 353.28-353.28s-158.72-353.28-353.28-353.28z" />
<glyph unicode="&#xea82;" glyph-name="share" d="M864 256c-45.16 0-85.92-18.738-115.012-48.83l-431.004 215.502c1.314 8.252 2.016 16.706 2.016 25.328s-0.702 17.076-2.016 25.326l431.004 215.502c29.092-30.090 69.852-48.828 115.012-48.828 88.366 0 160 71.634 160 160s-71.634 160-160 160-160-71.634-160-160c0-8.622 0.704-17.076 2.016-25.326l-431.004-215.504c-29.092 30.090-69.852 48.83-115.012 48.83-88.366 0-160-71.636-160-160 0-88.368 71.634-160 160-160 45.16 0 85.92 18.738 115.012 48.828l431.004-215.502c-1.312-8.25-2.016-16.704-2.016-25.326 0-88.368 71.634-160 160-160s160 71.632 160 160c0 88.364-71.634 160-160 160z" />
</font>
</defs>
</svg>
